<?xml version="1.0" standalone="no"?>
<!DOCTYPE svg PUBLIC "-//W3C//DTD SVG 1.1//EN" "http://www.w3.org/Graphics/SVG/1.1/DTD/svg11.dtd">
<svg xmlns="http://www.w3.org/2000/svg">
<defs >
<font id="Merriweather" horiz-adv-x="1180" ><font-face
    font-family="Merriweather"
    units-per-em="2048"
    panose-1="2 0 5 3 5 0 0 9 0 4"
    ascent="2014"
    descent="-560"
    alphabetic="0" />
<glyph unicode=" " glyph-name="space" horiz-adv-x="485" />
<glyph unicode="!" glyph-name="exclam" horiz-adv-x="686" d="M391 1778H636L393 488H255L391 1778ZM178 -5T163 11T143 46T137 94T154 156T193 208Q241 250 286 250T356 240Q417 215 417 143Q417 68 357 18Q309 -22 265 -22T200 -14Z" />
<glyph unicode="&quot;" glyph-name="quotedbl" horiz-adv-x="1003" d="M330 1687H557L393 966H253L330 1687ZM809 1687H1036L872 966H732L809 1687Z" />
<glyph unicode="#" glyph-name="numbersign" horiz-adv-x="1405" d="M325 365H111L119 493H345L409 898H189L197 1025H429L482 1357H647L596 1025H907L963 1357H1128L1074 1025H1306L1298 898H1054L989 493H1216L1208 365H969L912 0H752L803 365H491L429 0H267L325
365ZM823 493L887 898H576L511 493H823Z" />
<glyph unicode="$" glyph-name="dollar" horiz-adv-x="1205" d="M853 1544Q1025 1527 1115 1465L1068 1220H952L916 1384Q864 1423 761 1438Q730 1443 697 1443T618 1430T534 1388Q434 1312 434 1173Q434 1031 602 916Q653 882 710 846L828 770Q1044 626 1044
429Q1044 242 913 120Q791 6 598 -17L563 -230H383L417 -19Q257 -4 153 40Q124 53 109 65L154 343H280L302 159Q394 82 550 82Q661 82 747 146Q858 227 858 364Q858 505 696 614L472 762Q253 910 253 1121Q253 1296 376 1414Q493 1525 673 1546L703 1729H884L853
1544Z" />
<glyph unicode="%" glyph-name="percent" horiz-adv-x="1911" d="M1342 1530H1501L554 0H395L1342 1530ZM725 821T649 783T491 745T357 768T270 834Q200 918 200 1055Q200 1219 317 1347Q439 1480 613 1480Q890 1480 890 1185Q890 1012 778 883Q725 821 649 783ZM710
1177Q710 1378 585 1378Q482 1378 421 1264Q371 1171 371 1057Q371 907 446 863Q472 848 517 848T601 882T664 966Q710 1063 710 1177ZM1036 380Q1036 453 1067 529T1153 666Q1275 799 1449 799Q1726 799 1726 504Q1726 331 1614 202Q1495 64 1314 64Q1180 64 1106
153Q1036 237 1036 380ZM1546 496Q1546 697 1421 697Q1318 697 1257 584Q1207 490 1207 376Q1207 226 1282 182Q1308 167 1353 167T1437 201T1500 286Q1546 382 1546 496Z" />
<glyph unicode="&amp;" glyph-name="ampersand" horiz-adv-x="1534" d="M944 63Q778 -17 564 -17Q353 -17 211 74Q49 177 49 368Q49 566 266 703Q330 743 399 780Q310 988 310 1151Q310 1329 442 1440Q570 1549 763 1549Q935 1549 1020 1460Q1090 1388 1090 1270Q1090
1112 933 985Q848 916 755 865L604 781Q796 440 1020 244Q1084 340 1084 542Q1084 620 1061 684L1021 685Q948 685 872 647V781Q921 830 1027 830Q1055 830 1084 826L1145 818Q1224 806 1269 806T1345 814T1401 841Q1451 880 1464 968H1540Q1536 654 1315 654Q1287
654 1259 658Q1265 626 1265 586Q1265 334 1104 175Q1148 142 1195 119Q1283 86 1371 84L1360 -1Q1276 -20 1183 -20Q1051 -20 944 63ZM894 1249Q894 1446 737 1446Q624 1446 556 1368Q490 1293 490 1177Q490 1016 561 863Q718 945 779 1006T867 1122T894 1249ZM282
508T268 465T253 361T280 246T354 159Q442 93 582 93Q759 93 867 131Q668 315 532 543L449 683Q354 613 318 561Z" />
<glyph unicode="&apos;" glyph-name="quotesingle" horiz-adv-x="524" d="M320 1687H547L383 966H243L320 1687Z" />
<glyph unicode="(" glyph-name="parenleft" horiz-adv-x="854" d="M223 270Q203 377 203 492T220 738T283 996T388 1232T515 1429T643 1582Q759 1706 827 1741L914 1682Q812 1614 676 1404Q493 1124 431 773Q411 618 411 510T425 307T461 131T512 -14T570 -128Q622
-216 668 -255L560 -319H543Q440 -244 345 -80Q261 65 223 270Z" />
<glyph unicode=")" glyph-name="parenright" horiz-adv-x="854" d="M652 1158Q672 1051 672 936T655 690T592 432T487 196T360 -1T232 -154Q116 -278 48 -313L-39 -254Q63 -186 199 24Q382 304 444 655Q464 810 464 918T450 1121T414 1297T363 1442T305 1556Q253
1644 207 1683L315 1747H332Q435 1672 530 1508Q614 1363 652 1158Z" />
<glyph unicode="*" glyph-name="asterisk" horiz-adv-x="1366" d="M278 982L601 1112L715 1150L609 1188L312 1318L427 1484L672 1281L752 1205L741 1319L734 1653L926 1652L849 1319L815 1205L911 1281L1201 1485L1278 1318L955 1188L841 1149L947 1112L1244
982L1129 816L884 1019L803 1097L814 981L821 647L629 648L706 981L740 1097L645 1019L355 815L278 982Z" />
<glyph unicode="+" glyph-name="plus" horiz-adv-x="1366" d="M592 536L618 700L477 693H252L270 851H496L634 840L647 1005L674 1235H852L826 1005L797 841L912 851H1167L1149 693H894L782 700Q780 658 777 618T772 536L744 295H565L592 536Z" />
<glyph unicode="," glyph-name="comma" horiz-adv-x="526" d="M72 132L186 265Q378 218 378 -4Q378 -169 272 -305Q170 -438 5 -501L-38 -432L-35 -411Q46 -375 112 -278Q176 -182 176 -88Q176 -21 152 16Q108 80 65 78L72 132Z" />
<glyph unicode="-" glyph-name="hyphen" horiz-adv-x="1266" d="M250 851H1087L1069 693H232L250 851Z" />
<glyph unicode="." glyph-name="period" horiz-adv-x="526" d="M127 -5T112 11T92 46T86 94T103 156T142 208Q190 250 235 250T306 240Q366 215 366 143Q366 68 306 18Q258 -22 214 -22T149 -14Z" />
<glyph unicode="/" glyph-name="slash" horiz-adv-x="854" d="M-132 -362L729 1597H903L40 -362H-132Z" />
<glyph unicode="0" glyph-name="zero" horiz-adv-x="1278" d="M744 1162Q1175 1162 1175 697Q1175 556 1128 427T997 200T799 43T558 -16T348 21T213 122Q113 245 113 450Q113 751 300 957Q417 1086 578 1137Q658 1162 744 1162ZM340 457Q340 391 353 324T394
206Q455 96 571 94Q591 91 621 91T696 108T783 168T856 270T908 397Q948 531 948 646T935 829T894 948Q834 1053 712 1053Q577 1053 487 954Q340 793 340 457Z" />
<glyph unicode="1" glyph-name="one" horiz-adv-x="930" d="M430 916Q294 883 179 864L165 960Q314 994 491 1104L581 1162L665 1142L521 113L734 87L724 0H111L121 87L319 112L430 916Z" />
<glyph unicode="2" glyph-name="two" horiz-adv-x="1249" d="M78 79Q298 188 412 267T596 406T716 528Q822 661 822 780T767 963T605 1026Q473 1026 325 926Q286 899 258 875L205 964Q324 1090 520 1143Q591 1162 679 1162T838 1134T954 1060Q1043 969 1043 826Q1043
581 684 325Q539 222 346 125L910 163L1006 311L1107 275L1028 0H95L78 79Z" />
<glyph unicode="3" glyph-name="three" horiz-adv-x="1104" d="M58 -201Q132 -211 208 -211T376 -188T539 -120Q697 -18 697 149Q697 401 419 405L277 371L292 488Q449 519 573 603Q719 701 719 842Q719 1023 526 1023Q397 1023 273 944Q237 921 204 897L161 998Q268
1100 464 1146Q535 1162 607 1162T738 1146T842 1095Q942 1021 942 881Q942 752 827 637Q724 534 574 482Q751 482 845 390Q928 309 928 176Q928 30 818 -91Q665 -259 379 -311Q291 -327 230 -327Q136 -327 44 -315L58 -201Z" />
<glyph unicode="4" glyph-name="four" horiz-adv-x="1264" d="M26 94Q26 94 202 366L372 642L544 934L728 1256H835L917 1167L300 219L221 120L697 148L755 591L948 649L885 159L1136 174L1115 0H865L818 -375H629L678 0H62L26 94Z" />
<glyph unicode="5" glyph-name="five" horiz-adv-x="1116" d="M59 -239Q94 -245 172 -245T356 -215T544 -130Q726 -10 726 170Q726 393 569 446Q521 463 441 463T201 410L153 448L324 1146H861L883 1162H1051L993 977H457L341 551Q445 580 547 580T724 555T850
480Q957 377 957 188Q957 46 836 -81Q722 -200 540 -273Q360 -346 176 -346Q97 -346 46 -329L59 -239Z" />
<glyph unicode="6" glyph-name="six" horiz-adv-x="1268" d="M417 865Q548 975 758 975Q938 975 1034 860Q1117 759 1117 601Q1117 370 963 181Q799 -20 555 -20Q356 -20 246 122Q142 255 142 469Q142 832 386 1150Q540 1351 764 1476Q876 1537 999 1571L1028
1486Q809 1403 644 1231Q489 1068 417 865ZM376 683Q349 560 349 468T361 311T402 196Q467 88 601 88Q800 88 878 346Q908 448 908 537T893 683T850 776Q796 852 716 852T580 833T484 788Q431 751 376 683Z" />
<glyph unicode="7" glyph-name="seven" horiz-adv-x="1096" d="M856 1007L289 995L193 813L65 817L135 1146H1027L1059 1103L456 -320L248 -254L856 1007Z" />
<glyph unicode="8" glyph-name="eight" horiz-adv-x="1270" d="M801 797Q1071 610 1071 388Q1071 199 911 84Q765 -20 555 -20Q382 -20 262 64Q123 161 123 333Q123 608 500 807Q298 970 298 1158Q298 1347 431 1452Q555 1550 764 1550Q929 1550 1032 1464Q1138
1377 1138 1227Q1138 987 801 797ZM708 863Q872 937 924 1100Q941 1153 941 1213T926 1318T883 1392Q829 1451 742 1451Q636 1451 562 1374Q488 1296 488 1184Q488 1048 622 931Q662 896 708 863ZM356 486Q336 429 336 367T352 253T402 164Q470 86 585 86Q706 86
786 162Q868 240 868 360Q868 557 586 744Q418 662 356 486Z" />
<glyph unicode="9" glyph-name="nine" horiz-adv-x="1247" d="M824 277Q698 166 482 166Q300 166 204 285Q122 387 122 550Q122 771 276 958Q378 1083 525 1136Q600 1162 694 1162T865 1125T994 1022Q1098 894 1098 686Q1098 437 985 201Q819 -147 475 -336Q364
-397 241 -431L212 -345Q426 -265 594 -90Q749 72 824 277ZM544 289Q600 289 654 307T750 353Q810 393 864 459Q891 569 891 670T879 834T838 946Q772 1054 639 1054Q487 1054 402 896Q332 766 332 604Q332 455 390 369Q444 289 544 289Z" />
<glyph unicode=":" glyph-name="colon" horiz-adv-x="526" d="M200 804T185 820T165 855T159 903T176 965T215 1017Q263 1059 308 1059T379 1049Q439 1024 439 952Q439 877 379 827Q331 787 287 787T222 795ZM364 -5T349 11T329 46T323 94T340 156T379 208Q427
250 472 250T543 240Q603 215 603 143Q603 68 543 18Q495 -22 451 -22T386 -14Z" />
<glyph unicode=";" glyph-name="semicolon" horiz-adv-x="526" d="M72 132L186 265Q378 218 378 -4Q378 -169 272 -305Q170 -438 5 -501L-38 -432L-35 -411Q46 -375 112 -278Q176 -182 176 -88Q176 -21 152 16Q108 80 65 78L72 132ZM202 804T187 820T167 855T161
903T178 965T217 1017Q265 1059 310 1059T381 1049Q441 1024 441 952Q441 877 381 827Q333 787 289 787T224 795Z" />
<glyph unicode="&lt;" glyph-name="less" horiz-adv-x="1368" d="M211 814L1220 1324L1196 1130L400 751L1108 373L1085 176L195 686L211 814Z" />
<glyph unicode="=" glyph-name="equal" horiz-adv-x="1063" d="M168 1005H983L965 848H150L168 1005ZM98 496H913L895 339H80L98 496Z" />
<glyph unicode="&gt;" glyph-name="greater" horiz-adv-x="1368" d="M1259 689L250 179L274 373L1070 752L362 1130L385 1327L1275 817L1259 689Z" />
<glyph unicode="?" glyph-name="question" horiz-adv-x="1020" d="M360 464Q304 517 286 646Q280 684 280 725T302 806T362 881Q423 939 515 991L652 1066Q815 1153 843 1217Q852 1257 852 1316T824 1440T746 1552Q642 1653 487 1653Q380 1653 311 1620L339 1760Q374
1795 481 1809Q512 1813 542 1813Q797 1813 920 1682Q1023 1573 1023 1392Q1023 1151 846 1021Q795 984 742 954L640 898Q529 839 486 774Q462 738 462 700T467 636T480 588L494 546Q501 526 504 513L377 463L360 464ZM354 -5T339 11T319 46T313 94T330 156T369
208Q417 250 462 250T532 240Q593 215 593 143Q593 68 533 18Q485 -22 441 -22T376 -14Z" />
<glyph unicode="@" glyph-name="at" horiz-adv-x="1969" d="M1291 -312Q1135 -428 875 -428Q327 -428 172 -3Q120 140 120 327T159 675T268 969T438 1211T657 1392Q905 1545 1199 1545Q1505 1545 1685 1377Q1868 1206 1868 909Q1868 646 1768 430Q1680 240 1533
127Q1394 21 1256 21Q1172 21 1168 142Q1166 180 1166 220Q1166 306 1194 427Q1073 143 920 42Q865 7 812 7T708 32Q600 86 554 242Q532 317 532 371T532 466T548 584T592 734T665 872T768 986Q897 1092 1072 1092Q1156 1092 1213 1073T1292 1038L1457 1068Q1412
897 1384 686Q1343 385 1343 313L1349 193Q1349 165 1363 165Q1445 165 1529 268Q1655 423 1700 677Q1715 758 1715 853T1692 1034T1626 1183T1527 1291T1403 1362Q1278 1414 1127 1414T861 1375T653 1265T489 1100T369 893Q272 667 272 442T316 84T442 -132Q598
-291 900 -291Q1042 -291 1192 -250Q1234 -239 1260 -227L1291 -312ZM710 447Q710 170 846 170Q910 170 1002 300Q1135 487 1210 743Q1233 819 1241 879Q1205 943 1104 962Q1077 967 1032 967T934 945T843 884T779 794T738 684Q710 576 710 447Z" />
<glyph unicode="A" glyph-name="A" horiz-adv-x="1342" d="M706 1530H905L1158 118L1314 86L1307 0H799L804 86L960 115L910 436H338L188 116L347 86L341 0H-130L-121 86L-3 115L706 1530ZM892 557L786 1246L775 1364L395 557H892Z" />
<glyph unicode="B" glyph-name="B" horiz-adv-x="1290" d="M520 -14L265 0H30L39 86L187 116L348 1406L215 1429L227 1530H475Q543 1532 611 1538T775 1545T954 1517T1091 1444Q1198 1353 1198 1210Q1198 909 901 810Q1026 792 1106 706Q1190 614 1190 483T1137
257T991 102Q813 -14 520 -14ZM543 850L650 851Q808 851 902 932Q1002 1019 1002 1186Q1002 1370 844 1413Q789 1428 744 1428T678 1428T634 1426Q587 1424 545 1417L475 852Q506 850 543 850ZM563 107Q979 107 979 456Q979 596 908 660T686 725Q566 725 458 718L385
128Q430 107 563 107Z" />
<glyph unicode="C" glyph-name="C" horiz-adv-x="1222" d="M829 5T757 -5T598 -16T439 10T310 81T213 189T146 322Q93 468 93 622T117 892T191 1109T308 1292T459 1430Q630 1546 829 1546Q1018 1546 1184 1500L1222 1489L1156 1122H1039L1016 1382Q973 1415 912
1421T780 1428T634 1391T503 1292T408 1150Q302 931 302 662Q302 431 382 276Q473 101 641 101Q774 101 862 158Q893 177 908 205L976 402L1097 401L1057 70Q1031 62 988 48T887 19Z" />
<glyph unicode="D" glyph-name="D" horiz-adv-x="1431" d="M38 86L186 116L348 1406L215 1429L227 1530H523Q589 1531 654 1538T789 1546Q1081 1546 1228 1373Q1366 1209 1366 902Q1366 511 1156 250Q1014 75 806 12Q711 -16 605 -16Q578 -16 561 -15L499 -11Q484
-10 470 -9T430 -6T377 -3L322 -1Q295 0 274 0H29L38 86ZM386 132Q435 114 524 108T637 101Q818 114 945 239Q1163 453 1163 891Q1163 1185 1058 1312Q959 1430 730 1430Q616 1430 545 1411L386 132Z" />
<glyph unicode="E" glyph-name="E" horiz-adv-x="1229" d="M38 86L187 115L347 1406L214 1429L226 1530H1153L1146 1220H1040L992 1408L551 1422L479 854L926 861L914 705L467 721L384 116L935 140L1054 347L1158 316L1069 0H28L38 86Z" />
<glyph unicode="F" glyph-name="F" horiz-adv-x="1162" d="M38 87L187 116L347 1406L214 1429L226 1530H1196L1173 1220H1052L1023 1402L547 1421L479 854L949 862L937 704L467 721L385 118L654 87L646 0H30L38 87Z" />
<glyph unicode="G" glyph-name="G" horiz-adv-x="1342" d="M586 -16Q512 -16 441 10T315 81T221 189T155 322Q102 469 102 623T126 892T200 1109T317 1292T468 1430Q639 1546 838 1546Q1050 1546 1239 1490L1277 1479L1220 1183H1093L1071 1364Q997 1428 814 1428Q635
1428 512 1292Q407 1177 353 982Q310 827 310 662Q310 432 393 276Q487 101 660 101Q861 101 952 195L1009 590L775 607L788 723H1230L1140 94Q1111 91 1082 82L928 36Q748 -16 586 -16Z" />
<glyph unicode="H" glyph-name="H" horiz-adv-x="1533" d="M39 86L187 116L348 1406L215 1429L227 1530H710L699 1429L546 1406L475 844H1130L1200 1406L1050 1429L1060 1530H1547L1535 1429L1397 1406L1237 117L1388 86L1379 0H869L877 87L1040 117L1114 714H459L385
116L542 87L534 0H30L39 86Z" />
<glyph unicode="I" glyph-name="I" horiz-adv-x="706" d="M39 86L187 116L348 1406L215 1429L227 1530H710L699 1429L546 1406L385 116L542 87L534 0H30L39 86Z" />
<glyph unicode="J" glyph-name="J" horiz-adv-x="731" d="M207 86Q259 322 288 611T333 1072T368 1407L227 1429L241 1530H725L714 1429L559 1408Q456 444 434 278T399 75Q340 -113 186 -224Q59 -315 -115 -345L-150 -257Q-22 -221 84 -115Q184 -17 207 86Z" />
<glyph unicode="K" glyph-name="K" horiz-adv-x="1361" d="M39 86L187 116L348 1406L215 1429L227 1530H710L699 1429L546 1406L456 688L1067 1406L950 1429L962 1530H1395L1384 1429L1261 1407L734 828Q734 828 976 423Q1114 174 1177 138L1307 93L1293 0H1022Q988
5 915 136L658 618L614 697L432 498L385 116L542 87L534 0H30L39 86Z" />
<glyph unicode="L" glyph-name="L" horiz-adv-x="1178" d="M39 87L187 116L348 1406L215 1429L227 1530H745L734 1429L546 1406L385 116L853 127L989 454L1106 431L1010 0H31L39 87Z" />
<glyph unicode="M" glyph-name="M" horiz-adv-x="1870" d="M-43 87L117 116L434 1406L274 1429L286 1530H723L890 470L904 303Q1002 551 1072 709Q1072 709 1317 1266Q1317 1266 1430 1530H1846L1835 1429L1671 1406L1646 117L1799 87L1790 0H1265L1274 87L1449
115L1485 1026L1516 1429L1379 1074L907 -3L797 -18L562 1427L491 1040L279 116L464 87L455 0H-53L-43 87Z" />
<glyph unicode="N" glyph-name="N" horiz-adv-x="1517" d="M42 86L178 114L347 1406L201 1429L218 1530H557L1025 418L1096 185L1240 1407L1090 1429L1102 1530H1553L1543 1429L1397 1406L1194 0H1006L533 1115L472 1336L345 116L505 87L497 0H34L42 86Z" />
<glyph unicode="O" glyph-name="O" horiz-adv-x="1386" d="M612 -20Q505 -20 412 27T251 160Q107 345 107 670Q107 1045 308 1296Q511 1550 810 1550Q1043 1550 1178 1354Q1306 1166 1306 870Q1306 494 1115 241Q918 -20 612 -20ZM650 100Q746 100 831 155Q1003
269 1074 550Q1105 678 1105 828Q1105 1268 916 1387Q855 1425 767 1425T592 1372Q417 1266 344 1006Q311 889 311 753Q311 100 650 100Z" />
<glyph unicode="P" glyph-name="P" horiz-adv-x="1235" d="M608 544H531Q488 544 436 548L385 116L581 87L573 0H30L39 86L187 116L348 1406L215 1429L227 1530H480L765 1547Q1216 1547 1222 1157Q1222 1149 1222 1140Q1222 869 1042 703Q870 544 608 544ZM451
678Q911 600 991 937Q1014 1034 1014 1123T1003 1266Q967 1428 756 1428Q658 1428 546 1407L451 678Z" />
<glyph unicode="Q" glyph-name="Q" horiz-adv-x="1386" d="M995 -181Q1107 -181 1202 -138L1204 -274Q1140 -327 1010 -350Q968 -358 913 -358T792 -337Q651 -293 598 -168Q577 -121 577 -81T580 -17Q364 -3 236 175Q102 361 102 672Q102 1047 302 1298Q506 1552
805 1552Q1038 1552 1173 1356Q1301 1168 1301 871Q1301 529 1140 284Q1061 165 951 88T710 -10Q720 -159 905 -176Q953 -181 995 -181ZM645 102Q741 102 826 157Q998 271 1068 552Q1100 680 1100 830Q1100 1270 910 1389Q850 1427 762 1427T587 1374Q412 1268
339 1008Q306 891 306 755Q306 102 645 102Z" />
<glyph unicode="R" glyph-name="R" horiz-adv-x="1348" d="M630 672L549 670H440L377 116L562 87L554 0H50L59 86L187 116L348 1406L215 1429L227 1530H413L712 1546Q964 1546 1086 1460Q1212 1371 1212 1184Q1212 1010 1117 881Q1016 745 835 695Q930 634 998
448Q1075 236 1118 181T1196 112T1257 98T1288 98L1284 -1L1058 1Q1003 1 928 160Q901 219 871 296L815 440Q726 672 630 672ZM455 789Q527 785 592 785Q749 785 821 818Q1013 907 1013 1163Q1013 1305 949 1362Q877 1427 696 1427Q639 1427 538 1408L455 789Z"
/>
<glyph unicode="S" glyph-name="S" horiz-adv-x="1080" d="M97 343H213L239 150Q322 92 467 92Q580 92 668 149Q783 223 783 359Q783 504 634 616Q588 651 532 686T416 764T307 860Q196 981 196 1133Q196 1319 336 1436Q473 1550 675 1550Q910 1550 1038 1465L992
1203H886L858 1382Q788 1433 658 1433Q487 1433 421 1314Q393 1262 393 1196T411 1084T466 996Q524 928 617 870L768 772Q981 629 981 426Q981 223 834 99Q689 -23 461 -23Q263 -23 114 36Q74 51 56 65L97 343Z" />
<glyph unicode="T" glyph-name="T" horiz-adv-x="1225" d="M200 93L444 116L609 1423L290 1396L197 1066L83 1064L160 1530H1298L1232 1064H1124L1132 1397L808 1423L642 116L890 93L883 0H191L200 93Z" />
<glyph unicode="U" glyph-name="U" horiz-adv-x="1379" d="M406 11Q145 108 145 454Q145 518 153 593L260 1407L127 1430L139 1530H622L611 1430L460 1405L356 610Q345 507 345 468T345 418Q348 255 421 173T627 90Q966 90 1027 626L1130 1405L997 1429L1008 1530H1440L1429
1429L1305 1407L1201 627Q1135 119 826 14Q725 -20 607 -20T406 11Z" />
<glyph unicode="V" glyph-name="V" horiz-adv-x="1225" d="M197 1406L75 1429L85 1530H566L555 1429L404 1406L540 449L567 170L662 449L1075 1406L941 1430L951 1530H1361L1351 1430L1247 1408L607 -9L434 -21L197 1406Z" />
<glyph unicode="W" glyph-name="W" horiz-adv-x="1781" d="M153 1407L30 1429L42 1530H508L497 1429L341 1411L459 436L495 170L551 368L896 1289L882 1410L764 1429L775 1530H1251L1231 1429L1081 1409L1186 436L1204 170L1278 398L1685 1406L1554 1429L1565
1530H1987L1972 1429L1852 1407L1255 -10H1053L937 1020L550 -10H349L153 1407Z" />
<glyph unicode="X" glyph-name="X" horiz-adv-x="1294" d="M-52 87L70 115L569 768L268 1403L129 1429L139 1530H655L644 1429L499 1407L701 893L1040 1406L900 1429L912 1530H1381L1371 1429L1234 1407L764 776L1086 116L1240 87L1232 0H696L704 87L855 115L629
644L266 116L415 86L407 0H-62L-52 87Z" />
<glyph unicode="Y" glyph-name="Y" horiz-adv-x="1173" d="M251 87L447 116L508 590L144 1406L40 1429L50 1530H539L527 1429L367 1406L595 838L631 712L703 838L1046 1406L907 1429L918 1530H1330L1319 1429L1220 1407L696 590L635 116L848 87L840 0H243L251 87Z" />
<glyph unicode="Z" glyph-name="Z" horiz-adv-x="1191" d="M-3 89L806 1217L975 1416L399 1409L304 1162L186 1186L242 1530H1180L1205 1444L394 303L241 107L882 132L1007 384L1128 353L1035 0H24L-3 89Z" />
<glyph unicode="[" glyph-name="bracketleft" horiz-adv-x="854" d="M180 -54Q180 133 214 373T268 740T308 994L347 1245Q366 1369 378 1462T405 1603T446 1681Q494 1735 611 1735Q679 1735 871 1688L858 1601H583L360 -55Q426 -55 497 -56T635 -57Q629 -101
625 -143L560 -162Q454 -190 380 -190T272 -183T218 -160Q180 -129 180 -54Z" />
<glyph unicode="\" glyph-name="backslash" horiz-adv-x="854" d="M126 1597H299L876 -362H702L126 1597Z" />
<glyph unicode="]" glyph-name="bracketright" horiz-adv-x="854" d="M725 1610Q725 1423 691 1183T637 816T597 562L558 311Q539 187 527 94T500 -47T459 -125Q411 -179 294 -179Q226 -179 34 -132L47 -45H322L545 1611Q479 1611 408 1612T270 1613Q276 1657
280 1699L345 1718Q451 1746 525 1746T633 1739T687 1716Q725 1685 725 1610Z" />
<glyph unicode="^" glyph-name="asciicircum" horiz-adv-x="1364" d="M688 1531H885L1142 510H977L762 1302L342 510H177L688 1531Z" />
<glyph unicode="_" glyph-name="underscore" horiz-adv-x="1335" d="M1287 -187L1267 -338H-111L-91 -187H1287Z" />
<glyph unicode="`" glyph-name="grave" horiz-adv-x="541" d="M436 1251Q325 1298 160 1450Q80 1523 50 1576L203 1743L491 1311L436 1251Z" />
<glyph unicode="a" glyph-name="a" horiz-adv-x="1173" d="M718 136Q588 -20 413 -20Q251 -20 164 102Q83 216 83 412Q83 573 160 744Q288 1030 540 1128Q628 1163 726 1163T929 1128L1048 1162L917 187Q912 146 923 129T956 111T1035 157L1066 104Q1049 73 1005
42Q916 -20 843 -20Q716 -20 716 101Q716 108 716 115L718 136ZM832 1008Q785 1041 707 1041T571 1013T466 938T387 830T331 701Q288 570 288 467T299 305T331 206Q374 122 450 122Q578 122 688 236Q719 268 740 298L832 1008Z" />
<glyph unicode="b" glyph-name="b" horiz-adv-x="1188" d="M455 -20Q347 -20 223 25L125 -20L323 1484L228 1527L249 1611L489 1650L540 1623L456 998Q543 1110 666 1149Q710 1163 778 1163T911 1131T1017 1040Q1100 925 1100 730Q1100 474 932 240Q746 -20 455
-20ZM341 143Q394 101 478 101T620 129T721 206T798 317T852 448Q895 584 895 723T850 941T727 1020Q643 1020 554 955Q480 901 433 829L341 143Z" />
<glyph unicode="c" glyph-name="c" horiz-adv-x="879" d="M828 921Q719 1016 632 1016T484 980T378 872Q286 725 286 460Q286 203 406 139Q444 119 485 119T558 125T620 146Q676 171 759 232L798 151Q708 45 564 -1Q506 -20 428 -20T284 10T171 99Q77 218 77 430Q77
688 228 912Q331 1066 489 1130Q570 1163 666 1163Q794 1163 886 1115L828 921Z" />
<glyph unicode="d" glyph-name="d" horiz-adv-x="1179" d="M844 -20Q724 -20 724 103Q724 109 724 115V142Q636 33 510 -6Q464 -20 397 -20T267 12T164 102Q83 216 83 412Q83 573 160 744Q288 1030 540 1128Q628 1163 710 1163T869 1145L920 1482L797 1525L818
1608L1082 1650L1135 1623L927 187Q916 111 947 111T1035 157L1066 105Q1021 38 924 -4Q886 -20 844 -20ZM846 997Q795 1041 712 1041T571 1013T466 936T387 825T331 694Q288 560 288 420T330 201T446 122Q570 122 686 238Q718 270 740 300L846 997Z" />
<glyph unicode="e" glyph-name="e" horiz-adv-x="1051" d="M510 119Q693 119 850 265L896 182Q846 110 742 52Q617 -20 499 -20T304 18Q154 92 106 263Q86 337 86 380T87 473T110 615T170 787T260 938T378 1057Q516 1163 676 1163Q884 1163 942 1012Q960 966 960
901T924 773T830 659T699 573T552 512Q403 462 295 460Q293 439 293 421T294 378T304 315T329 242T370 179Q426 119 510 119ZM300 570Q446 577 588 660Q689 718 732 802Q755 845 755 910T720 1010T632 1046T535 1023T458 960T396 871T348 768Q312 668 300 570Z"
/>
<glyph unicode="f" glyph-name="f" horiz-adv-x="701" d="M268 1012H129L144 1087L293 1149L305 1220Q334 1403 460 1538Q584 1670 724 1670Q824 1670 882 1644L823 1476L800 1492Q750 1524 696 1524T612 1503T560 1445Q517 1375 500 1243L489 1155H724L708 1012H471L337
-59Q311 -261 206 -386Q100 -513 -64 -513Q-156 -513 -207 -500L-154 -332Q-59 -370 11 -370Q97 -370 130 -127L268 1012Z" />
<glyph unicode="g" glyph-name="g" horiz-adv-x="1153" d="M540 1128Q628 1163 733 1163T948 1121L1068 1163L875 -77Q842 -296 662 -411Q511 -508 338 -508Q206 -508 119 -473L169 -288Q299 -350 436 -350Q563 -350 608 -310Q651 -271 671 -145L716 133Q630 30
506 -7Q462 -20 396 -20T267 12T164 102Q83 216 83 412Q83 573 160 744Q288 1030 540 1128ZM843 1000Q791 1041 710 1041T571 1013T466 936T387 825T331 694Q288 560 288 420T330 201T446 122Q570 122 688 240Q720 272 742 302L843 1000Z" />
<glyph unicode="h" glyph-name="h" horiz-adv-x="1239" d="M890 -20Q760 -20 767 111Q772 197 790 299T816 444T834 538T852 644Q872 766 872 835T863 935T838 982Q814 1005 767 1005T674 986T584 932Q487 859 413 750L313 0H119L312 1482L194 1525L211 1608L477
1650L529 1623L434 911Q566 1088 730 1144Q787 1163 842 1163T939 1148T1010 1096Q1072 1022 1072 861Q1072 772 1050 659L1021 505L995 346Q968 176 975 143T997 110Q1032 110 1104 166L1135 114Q1114 79 1066 46Q969 -20 890 -20Z" />
<glyph unicode="i" glyph-name="i" horiz-adv-x="641" d="M434 1388Q408 1388 386 1398Q317 1428 317 1503Q317 1563 366 1608Q412 1651 451 1651T513 1642Q583 1613 583 1541Q583 1480 536 1432Q491 1388 434 1388ZM286 -20Q162 -20 162 94Q162 162 195 368L288
980L140 1031L158 1112L460 1163L509 1139L370 187Q367 168 367 154Q367 111 392 111Q429 111 499 178L531 125Q481 47 372 -2Q331 -20 286 -20Z" />
<glyph unicode="j" glyph-name="j" horiz-adv-x="647" d="M-174 -400Q-146 -412 -89 -412T20 -372T105 -264Q164 -147 188 65L286 980L130 1031L148 1112L459 1163L507 1139L377 0Q348 -248 224 -386Q107 -518 -69 -518Q-174 -518 -209 -481L-174 -400ZM434 1388Q408
1388 386 1398Q317 1428 317 1503Q317 1563 366 1608Q412 1651 451 1651T513 1642Q583 1613 583 1541Q583 1480 536 1432Q491 1388 434 1388Z" />
<glyph unicode="k" glyph-name="k" horiz-adv-x="1078" d="M298 1482L181 1525L197 1608L463 1650L515 1623L299 0H105L298 1482ZM947 121Q997 121 1058 180L1092 119Q1040 33 918 -7Q879 -20 838 -20Q740 -20 681 88L396 610L398 611H396L492 683Q653 799 733
906Q769 956 777 997L787 1055Q796 1106 839 1136Q876 1163 922 1163Q991 1163 1018 1105Q1091 951 666 680L569 620L831 216Q858 174 891 148T947 121Z" />
<glyph unicode="l" glyph-name="l" horiz-adv-x="606" d="M359 111Q396 111 467 177L498 125Q478 89 431 53Q334 -20 266 -20T170 11T142 115Q142 154 148 192L332 1482L209 1525L230 1608L492 1650L540 1623L338 187Q327 111 359 111Z" />
<glyph unicode="m" glyph-name="m" horiz-adv-x="1882" d="M1534 -20Q1415 -20 1415 97Q1415 181 1439 337L1472 542Q1505 748 1505 825T1497 934T1474 980Q1453 1003 1410 1003T1325 984T1240 932Q1155 866 1079 758Q1070 649 1048 505L984 0H787L843 443L858
538Q884 720 884 812T877 935T856 982Q835 1005 786 1005T693 986T603 933Q508 861 432 755L330 0H135L265 963L166 1022L184 1111L426 1163L474 1139L455 927Q588 1090 752 1144Q807 1163 858 1163T948 1150T1015 1108Q1072 1049 1082 916Q1213 1088 1368 1144Q1422
1163 1474 1163T1568 1146T1640 1092Q1704 1015 1704 861Q1704 782 1684 666Q1623 293 1619 222T1618 131T1636 111Q1673 111 1745 177L1776 125Q1751 86 1706 52Q1613 -20 1534 -20Z" />
<glyph unicode="n" glyph-name="n" horiz-adv-x="1258" d="M907 -21Q777 -21 784 111Q788 176 799 245L818 357Q823 391 841 490T868 644Q889 773 889 838T881 935T858 982Q837 1005 787 1005T693 986T603 933Q508 861 432 755L330 0H135L265 963L167 1022L185
1111L427 1163L475 1139L455 927Q588 1090 752 1144Q807 1163 861 1163T956 1148T1028 1096Q1089 1022 1089 861Q1089 777 1067 662T1034 488Q982 190 996 130Q1000 110 1022 110T1101 156L1132 104Q1088 37 987 -5Q949 -21 907 -21Z" />
<glyph unicode="o" glyph-name="o" horiz-adv-x="1143" d="M315 11Q87 108 87 457Q87 724 242 937Q345 1078 495 1134Q570 1163 659 1163T822 1132T946 1042Q1051 919 1051 693Q1051 416 896 206Q792 66 642 8Q567 -20 478 -20T315 11ZM422 126Q463 102 519 102T621
128T704 200T768 306Q842 475 842 687Q842 945 714 1018Q673 1041 617 1041T515 1015T432 943T368 837Q294 668 294 456Q294 198 422 126Z" />
<glyph unicode="p" glyph-name="p" horiz-adv-x="1160" d="M622 14Q535 -20 455 -20T300 -4L229 -520H39L242 981L133 1032L151 1111L413 1163L460 1139L442 1016Q564 1163 732 1163Q900 1163 989 1040Q1072 925 1072 730Q1072 474 904 240Q789 79 622 14ZM320
137Q372 101 453 101T592 129T693 206T770 317T824 448Q867 584 867 723T822 941T699 1020Q584 1020 472 909Q441 879 419 849L320 137Z" />
<glyph unicode="q" glyph-name="q" horiz-adv-x="1155" d="M712 128Q584 -20 413 -20Q251 -20 164 102Q83 216 83 412Q83 573 160 744Q288 1030 540 1128Q628 1163 725 1163T946 1122L1037 1132L847 -311Q840 -354 851 -371T868 -388Q902 -388 976 -321L1007 -374Q988
-408 939 -445Q838 -518 760 -518Q646 -518 646 -397Q646 -391 646 -384L712 128ZM827 1011Q779 1041 704 1041T571 1013T466 936T387 825T331 694Q288 560 288 420T330 201T446 122Q566 122 679 231Q710 261 733 291L827 1011Z" />
<glyph unicode="r" glyph-name="r" horiz-adv-x="836" d="M257 962L157 1022L175 1111L417 1163L465 1139L444 912Q518 1060 674 1134Q734 1162 778 1162Q854 1162 867 1149L823 941Q795 955 740 955T644 943T563 904Q472 841 419 716L330 0H135L257 962Z" />
<glyph unicode="s" glyph-name="s" horiz-adv-x="869" d="M78 190Q146 143 260 122Q301 115 339 115T413 119T478 138Q545 171 545 259Q545 362 434 452Q402 478 373 499T307 553T238 629Q160 733 160 823T191 974T276 1076Q387 1163 545 1163Q663 1163 726 1148T801
1126L763 959Q737 997 623 1024Q583 1034 544 1034T473 1028T416 1006Q349 965 349 876Q349 766 508 645Q610 566 651 514Q732 409 732 315T700 161T612 61Q502 -20 336 -20Q188 -20 86 17Q55 28 42 39L78 190Z" />
<glyph unicode="t" glyph-name="t" horiz-adv-x="735" d="M333 -20Q150 -20 150 159V170Q150 201 162 292L253 1016H133L153 1103L276 1150Q333 1218 409 1416H504L470 1155H732L712 1016H453L370 390Q353 269 353 227T356 166T369 138Q385 119 420 119T483 127T537
149Q593 176 629 203L647 125Q579 42 422 -6Q375 -20 333 -20Z" />
<glyph unicode="u" glyph-name="u" horiz-adv-x="1207" d="M750 120Q610 -20 420 -20Q232 -20 183 124Q165 177 165 232T168 329T176 414L250 963L152 1022L170 1111L412 1163L460 1139L370 430Q361 354 361 294T371 201T400 150Q433 117 485 117T573 127T642
156Q709 192 761 246L881 1155H1074L949 189Q947 171 947 157Q947 113 971 113Q1005 113 1077 180L1108 127Q1088 91 1039 55Q939 -18 868 -18T773 15T748 76T750 120Z" />
<glyph unicode="v" glyph-name="v" horiz-adv-x="1057" d="M870 1163Q998 1163 998 963Q998 812 832 527L707 322L473 -8L322 -20L168 965Q154 1040 98 1016Q83 1009 66 998L37 1058Q72 1113 162 1150Q195 1163 233 1163Q334 1163 356 1084Q363 1059 366 1026L433
355L445 170L559 338L637 467Q759 675 803 899Q810 941 793 990T775 1075T801 1137T870 1163Z" />
<glyph unicode="w" glyph-name="w" horiz-adv-x="1698" d="M256 355L171 965Q154 1054 67 998L37 1058Q81 1116 164 1150Q198 1163 237 1163Q339 1163 362 1084Q370 1059 373 1026L425 340L436 155L513 323L866 1155H1040L1118 155L1229 323Q1367 536 1426 785Q1451
891 1444 929T1432 987L1421 1022Q1416 1039 1416 1075T1442 1137T1523 1163Q1634 1163 1634 953Q1634 803 1484 524Q1455 469 1424 418L1159 -8L972 -19L934 355L901 737L894 878L845 736L649 322L483 -8L315 -20L256 355Z" />
<glyph unicode="x" glyph-name="x" horiz-adv-x="1008" d="M830 111Q864 111 935 177L970 123Q954 88 907 53Q810 -20 735 -20Q676 -20 653 2Q625 29 604 85L471 432L187 0H-22L407 586L224 976Q210 1005 200 1018T171 1032T90 986L56 1040Q73 1071 117 1101Q208
1163 276 1163Q338 1163 359 1143Q387 1117 408 1059L522 717L814 1155H1026L585 560L782 167Q796 138 806 125T830 111Z" />
<glyph unicode="y" glyph-name="y" horiz-adv-x="1071" d="M-83 -320Q10 -360 63 -360T158 -346T244 -296Q346 -215 413 -53H350L180 965Q171 996 163 1008T131 1021T58 978L29 1038Q74 1105 170 1147Q206 1163 244 1163T305 1154T344 1126Q366 1097 378 1026L463
295L483 21L642 338L704 479Q808 709 832 898Q837 938 825 971L808 1021Q802 1038 802 1054Q802 1110 829 1136T899 1162Q1027 1162 1027 972Q1027 773 868 472L659 69Q508 -213 401 -340Q327 -446 173 -489Q115 -505 71 -505T4 -503T-44 -496Q-104 -486 -129 -478L-83
-320Z" />
<glyph unicode="z" glyph-name="z" horiz-adv-x="1025" d="M744 1134Q811 1128 868 1128T968 1163L1026 1103L376 296L248 153H660Q729 153 783 200T848 315H910Q910 165 864 50Q848 11 831 0Q795 -23 733 -23T594 -18T436 -6Q233 10 191 10Q118 10 82 -10L65
-23L-3 39L639 827L777 979L393 980Q286 980 230 882Q214 853 209 819H146Q146 974 190 1090Q205 1129 222 1140Q258 1163 320 1163T455 1158T602 1146L744 1134Z" />
<glyph unicode="{" glyph-name="braceleft" horiz-adv-x="1019" d="M1001 1688Q988 1606 988 1601H712L616 970Q604 886 484 828Q460 816 433 804L373 776Q479 722 508 692Q565 633 556 575L461 -55H736Q734 -61 733 -75T729 -106T724 -143Q602 -179 546 -184T446
-190T370 -183T318 -160Q281 -129 281 -47Q281 -42 285 -12L326 277Q345 412 371 579Q371 635 243 686Q199 703 154 714L172 838Q417 898 429 966L506 1483Q530 1634 576 1684Q624 1735 741 1735Q809 1735 1001 1688Z" />
<glyph unicode="|" glyph-name="bar" horiz-adv-x="854" d="M360 1780H533V-186H360V1780Z" />
<glyph unicode="}" glyph-name="braceright" horiz-adv-x="1019" d="M57 -142Q70 -60 70 -55H346L442 576Q454 660 574 718Q598 730 625 742L685 770Q579 824 550 854Q493 913 502 971L597 1601H322Q324 1607 325 1621T329 1652T334 1689Q456 1725 512 1730T612
1736T688 1729T740 1706Q777 1675 777 1593Q777 1588 773 1558L732 1269Q713 1134 687 967Q687 911 815 860Q859 843 904 832L886 708Q641 648 629 580L552 63Q528 -88 482 -138Q434 -189 317 -189Q249 -189 57 -142Z" />
<glyph unicode="~" glyph-name="asciitilde" horiz-adv-x="1137" d="M425 892Q300 892 223 775L152 848Q179 928 264 989Q359 1058 464 1058Q548 1058 650 972L701 930Q758 886 806 886Q931 886 1008 1003L1079 930Q1057 847 968 784Q878 720 767 720Q681 720
582 806Q517 862 486 877T425 892Z" />
<glyph unicode="&#xa1;" glyph-name="exclamdown" horiz-adv-x="686" d="M328 -434H83L326 856H464L328 -434ZM541 1349T556 1333T576 1298T582 1250T565 1188T526 1136Q478 1094 433 1094T363 1104Q302 1129 302 1201Q302 1276 362 1326Q410 1366 454 1366T519 1358Z" />
<glyph unicode="&#xa2;" glyph-name="cent" horiz-adv-x="1056" d="M886 921Q777 1016 690 1016T542 980T436 872Q344 725 344 460Q344 203 464 139Q502 119 543 119T616 125T678 146Q734 171 817 232L856 151Q725 5 552 -16L515 -215H365L403 -10Q208 36 153
264Q135 339 135 418T148 573T188 721T255 864T348 990Q461 1113 607 1149L659 1358H809L759 1161Q870 1152 944 1115L886 921Z" />
<glyph unicode="&#xa3;" glyph-name="sterling" horiz-adv-x="1368" d="M131 -10Q99 -20 76 -20T38 -16Q-10 -6 -10 49Q-10 124 78 180Q161 233 257 233Q296 289 326 426Q334 463 338 493L378 744H203L221 875H399L417 986Q448 1215 601 1386Q760 1565 971 1565Q1107
1565 1177 1525Q1205 1509 1230 1483L1117 1313Q1105 1340 1057 1368Q961 1424 870 1424Q735 1424 656 1198Q626 1114 616 1038T600 934L591 875H914L897 744H568Q566 731 565 719T555 651T530 523T493 397Q463 315 386 197Q435 184 483 166T580 132Q700 91 782
91T920 105T1009 148Q1074 203 1074 321Q1074 380 1028 451Q1015 470 1003 481L1140 610Q1234 535 1265 414Q1275 374 1275 337T1269 260T1244 182T1194 106T1110 42Q992 -20 802 -20Q682 -20 579 9T414 60L297 102Q234 20 131 -10Z" />
<glyph unicode="&#xa4;" glyph-name="currency" horiz-adv-x="1540" d="M917 252T782 252T540 324L346 130L232 243L424 435Q342 549 342 688T422 942L229 1135L342 1249L536 1053Q650 1128 786 1128T1038 1047L1228 1236L1341 1122L1150 931Q1222 821 1222 688T1145
442L1339 248L1225 135L1031 328Q917 252 782 252ZM490 690Q490 564 576 474Q661 385 782 385Q903 385 988 474Q1074 564 1074 690Q1074 816 988 906Q903 995 782 995Q661 995 576 906Q490 816 490 690Z" />
<glyph unicode="&#xa5;" glyph-name="yen" horiz-adv-x="1483" d="M393 87L610 117L641 376H229L244 506H656L683 731H270L284 862H635L331 1434L212 1452L223 1552H721L710 1452L535 1435L770 975L811 864L877 983L1180 1435L1041 1452L1052 1552H1515L1504 1453L1368
1425L942 862H1290L1276 731H859L832 506H1249L1234 376H817L787 117L1007 87L998 0H385L393 87Z" />
<glyph unicode="&#xa6;" glyph-name="brokenbar" horiz-adv-x="854" d="M360 1780H533V886H360V1780ZM360 708H533V-186H360V708Z" />
<glyph unicode="&#xa7;" glyph-name="section" horiz-adv-x="1194" d="M963 405Q1028 335 1028 245Q1028 103 918 -11Q796 -136 602 -175Q546 -186 491 -186T366 -178T234 -156Q96 -127 56 -100L96 230H199L234 22Q299 -59 447 -70Q488 -73 531 -73T626 -58T724
-12Q828 58 843 177Q844 186 844 210T820 268T747 332T636 387L508 438Q343 505 283 558Q181 648 181 754Q181 874 264 1012Q286 1048 311 1078Q232 1157 232 1256Q232 1409 348 1518Q468 1633 658 1664Q710 1673 765 1673T882 1666T992 1648Q1088 1627 1134 1597L1097
1296H1003L948 1504Q894 1567 732 1567Q522 1567 446 1428Q421 1380 421 1333T445 1250T517 1181T629 1120L758 1062Q928 987 985 931Q1086 834 1086 722Q1086 637 1049 551T963 405ZM404 1008Q351 918 351 861T370 768T429 700T524 641T639 590L759 538Q819 512
871 480Q914 560 914 613T896 704T839 778T747 841T635 896L516 950Q456 976 404 1008Z" />
<glyph unicode="&#xa8;" glyph-name="dieresis" horiz-adv-x="809" d="M513 1424Q456 1482 494 1562Q521 1616 573 1640Q599 1651 626 1651T678 1642Q748 1613 748 1541Q748 1478 701 1432Q655 1388 614 1388Q547 1388 513 1424ZM130 1398Q61 1428 61 1503Q61
1562 107 1608Q150 1651 192 1651T258 1642Q328 1613 328 1541Q328 1478 281 1432Q235 1388 194 1388T130 1398Z" />
<glyph unicode="&#xa9;" glyph-name="copyright" horiz-adv-x="1768" d="M178 806Q178 910 205 1006T281 1187T399 1339T552 1457Q727 1559 933 1559Q1246 1559 1467 1340Q1608 1200 1662 1006Q1689 910 1689 806T1662 605T1586 425T1467 272T1314 154Q1136 52
933 52Q730 52 552 154Q384 251 282 424Q178 599 178 806ZM297 806Q297 537 482 348Q667 158 933 158Q1200 158 1386 348Q1503 468 1548 634Q1570 717 1570 806Q1570 1073 1386 1264Q1270 1383 1104 1430Q1022 1454 933 1454Q760 1454 610 1365Q468 1281 383 1132Q297
981 297 806ZM1185 525L1213 458Q1145 399 1008 374Q965 366 898 366T760 400T642 494Q542 617 542 802Q542 805 542 808Q542 991 654 1114Q774 1247 969 1247Q1132 1247 1203 1209V1004H1129L1075 1124Q1032 1163 928 1163Q831 1163 768 1090Q696 1007 696 861Q696
857 696 853Q696 666 784 558Q860 465 966 465T1185 525Z" />
<glyph unicode="&#xaa;" glyph-name="ordfeminine" horiz-adv-x="854" d="M583 869Q473 743 333 743Q215 743 149 822Q84 901 84 1040Q84 1166 152 1292Q259 1486 459 1554Q525 1577 603 1577T772 1548L875 1586L753 891Q751 837 765 837Q786 837 821 857L844
818Q837 803 797 783Q720 743 683 743T628 752T598 778Q571 815 583 869ZM268 1055Q268 861 413 861Q491 861 588 953L669 1417Q630 1475 562 1475T436 1437T340 1338Q268 1221 268 1055Z" />
<glyph unicode="&#xab;" glyph-name="guillemotleft" horiz-adv-x="1878" d="M502 690L1194 1086L1232 971L722 615L1136 264L1066 152L480 530L502 690ZM921 690L1613 1086L1651 971L1141 615L1555 264L1485 152L899 530L921 690Z" />
<glyph unicode="&#xac;" glyph-name="logicalnot" horiz-adv-x="1370" d="M228 853H1188L1126 322H949L996 721H213L228 853Z" />
<glyph unicode="&#xad;" glyph-name="uni00AD" horiz-adv-x="1706" />
<glyph unicode="&#xae;" glyph-name="registered" horiz-adv-x="1768" d="M178 806Q178 910 205 1006T281 1187T399 1339T552 1457Q727 1559 933 1559Q1246 1559 1467 1340Q1608 1200 1662 1006Q1689 910 1689 806T1662 605T1586 425T1467 272T1314 154Q1136 52
933 52Q730 52 552 154Q384 251 282 424Q178 599 178 806ZM297 806Q297 537 482 348Q667 158 933 158Q1200 158 1386 348Q1503 468 1548 634Q1570 717 1570 806Q1570 1073 1386 1264Q1270 1383 1104 1430Q1022 1454 933 1454Q760 1454 610 1365Q468 1281 383 1132Q297
981 297 806ZM716 1240L954 1245Q1182 1245 1248 1108Q1268 1066 1269 1020T1261 935T1225 862Q1169 790 1035 766Q1109 724 1172 608L1219 525Q1241 486 1271 465Q1295 453 1338 453V375H1178Q1146 375 1106 455L1068 534Q988 705 883 749H796V469L898 449V375H572V449L655
469V1134L572 1156V1240H716ZM927 1155Q838 1155 796 1145V837Q839 829 909 829T1011 842T1066 878Q1113 926 1113 993Q1113 1155 927 1155Z" />
<glyph unicode="&#xaf;" glyph-name="overscore" horiz-adv-x="614" d="M44 1574H554L549 1425H40L44 1574Z" />
<glyph unicode="&#xb0;" glyph-name="degree" horiz-adv-x="899" d="M524 955Q454 955 395 980Q274 1033 226 1153Q204 1210 204 1242Q204 1345 230 1404T302 1508Q398 1600 542 1600Q679 1600 774 1506Q864 1415 864 1283Q864 1141 764 1047Q667 955 524 955ZM531
1076Q572 1076 607 1091T668 1133Q724 1191 724 1283Q724 1363 671 1420Q616 1479 537 1479Q453 1479 400 1422Q344 1363 344 1272Q344 1192 396 1136Q452 1076 531 1076Z" />
<glyph unicode="&#xb1;" glyph-name="plusminus" horiz-adv-x="1370" d="M589 536L615 700L474 693H249L267 851H492L631 840Q634 882 638 923T645 1005L671 1235H849L823 1005L794 841L909 851H1164L1146 693H891L779 700Q777 658 774 618T768 536L741 295H562L589
536ZM197 180H1066L1049 30H180L197 180Z" />
<glyph unicode="&#xb2;" glyph-name="twosuperior" horiz-adv-x="1163" d="M339 1356L269 1450Q322 1519 440 1578Q581 1647 727 1647Q875 1647 960 1572Q1036 1507 1036 1415T989 1236T862 1070Q740 945 458 763L910 788L995 923L1098 894L1013 637H235L190 733L295
794Q553 947 704 1108Q834 1245 834 1353Q834 1494 654 1494T339 1356Z" />
<glyph unicode="&#xb3;" glyph-name="threesuperior" horiz-adv-x="1071" d="M290 1520Q468 1644 699 1644Q839 1644 916 1580Q984 1524 984 1433Q984 1233 721 1134Q861 1134 924 1054Q971 996 971 910Q971 794 888 700Q782 579 583 544Q523 534 481 534T402
538T328 552Q238 573 185 606L202 714Q308 663 443 663Q557 663 652 720Q764 787 764 906Q764 1005 662 1035Q629 1045 589 1046L385 1001L406 1126Q630 1168 726 1286Q773 1345 773 1416Q773 1512 626 1512Q514 1512 394 1456Q357 1439 326 1418L290 1520Z" />
<glyph unicode="&#xb4;" glyph-name="acute" horiz-adv-x="559" d="M50 1312L367 1743L509 1576Q480 1520 337 1405Q183 1280 103 1251L50 1312Z" />
<glyph unicode="&#xb5;" glyph-name="mu" horiz-adv-x="1364" d="M827 118Q684 -20 487 -20Q420 -19 364 11L306 -372H121L229 358Q248 500 272 643T305 882T309 999T286 1019T222 993L192 1045Q208 1071 249 1097Q332 1150 394 1150T486 1124T515 1037Q515 979
500 874Q463 630 445 520T427 335T435 221T462 160Q494 117 547 117T641 133T720 173Q782 212 848 278L960 1140H1154L1032 189Q1030 170 1030 156Q1030 113 1053 113T1120 140L1152 87Q1110 31 1016 -4Q981 -18 948 -18T890 -12Q825 3 825 84Q825 100 827 118Z"
/>
<glyph unicode="&#xb6;" glyph-name="paragraph" horiz-adv-x="1364" d="M264 87L429 117L512 774Q264 780 186 972Q160 1038 160 1130T189 1304T285 1445Q426 1571 715 1571Q785 1571 873 1564Q1042 1552 1109 1552H1348L1337 1449L1196 1416L1033 116L1168 86L1159
0H822L997 1414H789L605 0H256L264 87Z" />
<glyph unicode="&#xb7;" glyph-name="middot" horiz-adv-x="686" d="M247 641T232 657T212 692T206 740T223 802T262 854Q310 896 355 896T426 886Q486 861 486 789Q486 714 426 664Q378 624 334 624T269 632Z" />
<glyph unicode="&#xb8;" glyph-name="cedilla" horiz-adv-x="479" d="M242 -251T257 -213T278 -126T283 -44T275 30L332 34L385 30Q415 -14 415 -110Q415 -235 386 -306T322 -409Q261 -464 142 -464Q41 -464 4 -436L39 -305Q65 -319 103 -319T169 -309T219 -275Z" />
<glyph unicode="&#xb9;" glyph-name="onesuperior" horiz-adv-x="1020" d="M253 724L489 750L575 1395L314 1343L308 1446Q373 1465 436 1494Q669 1603 724 1645L793 1624L674 750L909 723L898 636H242L253 724Z" />
<glyph unicode="&#xba;" glyph-name="ordmasculine" horiz-adv-x="854" d="M795 924T729 860T584 765T424 733T284 759T182 830Q92 927 92 1085Q92 1314 246 1459Q383 1589 551 1589Q708 1587 794 1488Q877 1393 877 1253T836 1018ZM372 858Q398 838 414 838T432
838Q566 838 630 960Q681 1057 681 1216Q681 1407 592 1470Q564 1491 511 1491T412 1453T337 1356Q286 1252 286 1103Q286 924 372 858Z" />
<glyph unicode="&#xbb;" glyph-name="guillemotright" horiz-adv-x="1878" d="M861 548L169 152L131 267L641 623L227 974L297 1086L883 708L861 548ZM1537 548L845 152L807 267L1317 623L903 974L973 1086L1559 708L1537 548Z" />
<glyph unicode="&#xbc;" glyph-name="onequarter" horiz-adv-x="2560" d="M1488 1530H1647L966 0H807L1488 1530ZM284 724L520 750L606 1395L345 1343L339 1446Q404 1465 467 1494Q700 1603 755 1645L824 1624L705 750L940 723L929 636H273L284 724ZM1876 167H1384L1347
262L1953 1113L2041 1114L2134 1010L1616 367L1537 275L1895 304L1933 576L2135 599L2097 320L2361 342L2341 167H2077L2031 -176H1828L1876 167Z" />
<glyph unicode="&#xbd;" glyph-name="onehalf" horiz-adv-x="2560" d="M1488 1530H1647L966 0H807L1488 1530ZM284 724L520 750L606 1395L345 1343L339 1446Q404 1465 467 1494Q700 1603 755 1645L824 1624L705 750L940 723L929 636H273L284 724ZM1574 642L1504
736Q1557 805 1675 864Q1816 933 1962 933Q2110 933 2195 858Q2271 793 2271 701T2224 522T2097 356Q1975 231 1693 49L2145 74L2230 209L2333 180L2248 -77H1470L1425 19L1530 80Q1788 233 1939 394Q2069 531 2069 639Q2069 780 1889 780T1574 642Z" />
<glyph unicode="&#xbe;" glyph-name="threequarters" horiz-adv-x="2560" d="M1544 1530H1703L1022 0H863L1544 1530ZM367 1520Q545 1644 776 1644Q916 1644 993 1580Q1061 1524 1061 1433Q1061 1233 798 1134Q938 1134 1001 1054Q1048 996 1048 910Q1048 794
965 700Q859 579 660 544Q600 534 558 534T479 538T405 552Q315 573 262 606L279 714Q385 663 520 663Q634 663 729 720Q841 787 841 906Q841 1005 739 1035Q706 1045 666 1046L462 1001L483 1126Q707 1168 803 1286Q850 1345 850 1416Q850 1512 703 1512Q591 1512
471 1456Q434 1439 403 1418L367 1520ZM1876 167H1384L1347 262L1953 1113L2041 1114L2134 1010L1616 367L1537 275L1895 304L1933 576L2135 599L2097 320L2361 342L2341 167H2077L2031 -176H1828L1876 167Z" />
<glyph unicode="&#xbf;" glyph-name="questiondown" horiz-adv-x="1028" d="M674 1185T646 1175T590 1164T540 1172T503 1197Q470 1232 476 1276T496 1347T533 1394Q581 1436 626 1436T696 1426T735 1399Q763 1366 757 1322T736 1251T697 1204ZM66 29Q66 116 91
185T158 305T253 393T362 460L470 516Q586 575 632 640Q657 676 657 714T652 777T638 826L624 868Q618 888 615 901L742 951L759 950Q813 899 833 768Q839 729 839 688T813 608T742 533T640 463Q499 381 446 353T354 300Q267 244 246 197Q237 157 237 98T263 -26T337
-138Q436 -239 590 -239Q695 -239 764 -206L740 -346Q705 -381 596 -395Q565 -399 535 -399Q281 -399 162 -268Q66 -162 66 29Z" />
<glyph unicode="&#xc0;" glyph-name="Agrave" horiz-adv-x="1342" d="M706 1530H905L1158 118L1314 86L1307 0H799L804 86L960 115L910 436H338L188 116L347 86L341 0H-130L-121 86L-3 115L706 1530ZM892 557L786 1246L775 1364L395 557H892ZM846 1613Q758 1645
682 1694Q537 1789 506 1862L639 2000L902 1658L846 1613Z" />
<glyph unicode="&#xc1;" glyph-name="Aacute" horiz-adv-x="1342" d="M706 1530H905L1158 118L1314 86L1307 0H799L804 86L960 115L910 436H338L188 116L347 86L341 0H-130L-121 86L-3 115L706 1530ZM892 557L786 1246L775 1364L395 557H892ZM773 1658L1049 2000L1173
1862Q1138 1788 1016 1709Q920 1647 826 1613L773 1658Z" />
<glyph unicode="&#xc2;" glyph-name="Acircumflex" horiz-adv-x="1342" d="M706 1530H905L1158 118L1314 86L1307 0H799L804 86L960 115L910 436H338L188 116L347 86L341 0H-130L-121 86L-3 115L706 1530ZM892 557L786 1246L775 1364L395 557H892ZM485 1672L790
2000H967L1179 1672L1111 1613L870 1842L546 1614L485 1672Z" />
<glyph unicode="&#xc3;" glyph-name="Atilde" horiz-adv-x="1342" d="M706 1530H905L1158 118L1314 86L1307 0H799L804 86L960 115L910 436H338L188 116L347 86L341 0H-130L-121 86L-3 115L706 1530ZM892 557L786 1246L775 1364L395 557H892ZM494 1801Q549 1911
664 1956Q702 1970 738 1970T799 1960T846 1934T885 1900T920 1866Q962 1830 994 1830T1048 1840T1088 1867T1122 1902L1152 1940L1210 1849Q1168 1727 1042 1682Q1002 1668 960 1668T890 1678T841 1703T804 1737T772 1770Q712 1826 652 1800Q595 1775 541 1717L494
1801Z" />
<glyph unicode="&#xc4;" glyph-name="Adieresis" horiz-adv-x="1342" d="M706 1530H905L1158 118L1314 86L1307 0H799L804 86L960 115L910 436H338L188 116L347 86L341 0H-130L-121 86L-3 115L706 1530ZM892 557L786 1246L775 1364L395 557H892ZM919 1765T919
1804T933 1870T968 1916Q1013 1959 1053 1959T1116 1950Q1186 1921 1186 1848Q1186 1786 1139 1740Q1093 1696 1052 1696Q988 1696 954 1730ZM510 1770Q502 1789 502 1800T502 1828T516 1870T550 1916Q595 1959 634 1959T697 1950Q767 1921 767 1848Q767 1787 719
1740Q673 1696 632 1696Q539 1696 510 1770Z" />
<glyph unicode="&#xc5;" glyph-name="Aring" horiz-adv-x="1342" d="M683 1484Q527 1534 527 1696Q527 1855 656 1938Q750 2000 877 2000Q1018 2000 1090 1930Q1152 1870 1152 1772Q1152 1648 1070 1566Q1007 1503 914 1480L1158 118L1314 86L1307 0H799L804 86L960
115L910 436H338L188 116L347 86L341 0H-130L-121 86L-3 115L683 1484ZM939 1581Q1011 1641 1011 1752Q1011 1858 926 1898Q897 1912 860 1912T791 1903T733 1874Q669 1821 669 1719Q669 1656 711 1605T830 1553T939 1581ZM892 557L786 1246L775 1364L395 557H892Z"
/>
<glyph unicode="&#xc6;" glyph-name="AE" horiz-adv-x="1810" d="M706 1408L415 1430L429 1530H1745L1738 1241H1632L1584 1408L1185 1422L1113 854L1508 861L1496 705L1101 721L1028 116L1541 140L1637 325L1740 294L1675 0H697L707 86L826 115L868 476H395L211
116L400 86L394 0H-162L-148 86L6 115L706 1408ZM882 597L976 1399L870 1404L457 597H882Z" />
<glyph unicode="&#xc7;" glyph-name="Ccedilla" horiz-adv-x="1261" d="M698 -12Q708 -53 708 -99T702 -206T673 -321T616 -407Q555 -462 436 -462Q335 -462 298 -434L333 -303Q359 -317 397 -317T463 -307T514 -272Q577 -206 577 -42Q577 -27 576 -15Q336 -4
207 198Q93 377 93 655Q93 1036 308 1292Q445 1455 636 1516Q729 1546 846 1546Q1018 1546 1184 1500L1222 1489L1156 1122H1039L1016 1382Q973 1415 912 1421T780 1428T634 1391T503 1292T408 1150Q302 931 302 662Q302 431 382 276Q473 101 641 101Q774 101 862
158Q893 177 908 205L976 402L1097 401L1057 70L1000 52Q844 -1 698 -12Z" />
<glyph unicode="&#xc8;" glyph-name="Egrave" horiz-adv-x="1219" d="M285 86L434 115L594 1406L461 1429L473 1530H1400L1393 1220H1287L1239 1408L798 1422L726 854L1173 861L1161 705L714 721L631 116L1182 140L1301 347L1405 316L1316 0H275L285 86ZM783 1613Q695
1645 619 1694Q474 1789 443 1862L576 2000L839 1658L783 1613Z" />
<glyph unicode="&#xc9;" glyph-name="Eacute" horiz-adv-x="1219" d="M285 86L434 115L594 1406L461 1429L473 1530H1400L1393 1220H1287L1239 1408L798 1422L726 854L1173 861L1161 705L714 721L631 116L1182 140L1301 347L1405 316L1316 0H275L285 86ZM710 1658L986
2000L1110 1862Q1075 1788 953 1709Q857 1647 763 1613L710 1658Z" />
<glyph unicode="&#xca;" glyph-name="Ecircumflex" horiz-adv-x="1219" d="M285 86L434 115L594 1406L461 1429L473 1530H1400L1393 1220H1287L1239 1408L798 1422L726 854L1173 861L1161 705L714 721L631 116L1182 140L1301 347L1405 316L1316 0H275L285 86ZM422
1672L727 2000H904L1116 1672L1048 1613L807 1842L483 1614L422 1672Z" />
<glyph unicode="&#xcb;" glyph-name="Edieresis" horiz-adv-x="1219" d="M285 86L434 115L594 1406L461 1429L473 1530H1400L1393 1220H1287L1239 1408L798 1422L726 854L1173 861L1161 705L714 721L631 116L1182 140L1301 347L1405 316L1316 0H275L285 86ZM856
1765T856 1804T870 1870T905 1916Q950 1959 990 1959T1053 1950Q1123 1921 1123 1848Q1123 1786 1076 1740Q1030 1696 989 1696Q925 1696 891 1730ZM447 1770Q439 1789 439 1800T439 1828T453 1870T487 1916Q532 1959 571 1959T634 1950Q704 1921 704 1848Q704
1787 656 1740Q610 1696 569 1696Q476 1696 447 1770Z" />
<glyph unicode="&#xcc;" glyph-name="Igrave" horiz-adv-x="706" d="M39 86L187 116L348 1406L215 1429L227 1530H710L699 1429L546 1406L385 116L542 87L534 0H30L39 86ZM529 1613Q441 1645 365 1694Q220 1789 189 1862L322 2000L585 1658L529 1613Z" />
<glyph unicode="&#xcd;" glyph-name="Iacute" horiz-adv-x="706" d="M39 86L187 116L348 1406L215 1429L227 1530H710L699 1429L546 1406L385 116L542 87L534 0H30L39 86ZM456 1658L732 2000L856 1862Q821 1788 699 1709Q603 1647 509 1613L456 1658Z" />
<glyph unicode="&#xce;" glyph-name="Icircumflex" horiz-adv-x="706" d="M39 86L187 116L348 1406L215 1429L227 1530H710L699 1429L546 1406L385 116L542 87L534 0H30L39 86ZM168 1672L473 2000H650L862 1672L794 1613L553 1842L229 1614L168 1672Z" />
<glyph unicode="&#xcf;" glyph-name="Idieresis" horiz-adv-x="706" d="M39 86L187 116L348 1406L215 1429L227 1530H710L699 1429L546 1406L385 116L542 87L534 0H30L39 86ZM602 1765T602 1804T616 1870T651 1916Q696 1959 736 1959T799 1950Q869 1921 869 1848Q869
1786 822 1740Q776 1696 735 1696Q671 1696 637 1730ZM193 1770Q185 1789 185 1800T185 1828T199 1870T233 1916Q278 1959 317 1959T380 1950Q450 1921 450 1848Q450 1787 402 1740Q356 1696 315 1696Q222 1696 193 1770Z" />
<glyph unicode="&#xd0;" glyph-name="Eth" horiz-adv-x="1427" d="M28 88L176 118L252 722H102L118 852H268L338 1408L205 1431L217 1532H513Q579 1533 644 1540T779 1548Q1071 1548 1218 1375Q1356 1211 1356 904Q1356 513 1146 252Q1004 77 796 14Q701 -14 595
-14Q568 -14 551 -13L489 -9Q474 -8 460 -7T420 -4T367 -1L312 1Q285 2 264 2H19L28 88ZM376 134Q425 116 514 110T627 103Q808 116 935 241Q1153 455 1153 893Q1153 1187 1048 1314Q949 1432 720 1432Q606 1432 535 1413L465 852H857L841 722H449L376 134Z" />
<glyph unicode="&#xd1;" glyph-name="Ntilde" horiz-adv-x="1517" d="M42 86L178 114L347 1406L201 1429L218 1530H557L1025 418L1096 185L1240 1407L1090 1429L1102 1530H1553L1543 1429L1397 1406L1194 0H1006L533 1115L472 1336L345 116L505 87L497 0H34L42
86ZM586 1801Q641 1911 756 1956Q794 1970 830 1970T891 1960T938 1934T977 1900T1012 1866Q1054 1830 1086 1830T1140 1840T1180 1867T1214 1902L1244 1940L1302 1849Q1260 1727 1134 1682Q1094 1668 1052 1668T982 1678T933 1703T896 1737T864 1770Q804 1826
744 1800Q687 1775 633 1717L586 1801Z" />
<glyph unicode="&#xd2;" glyph-name="Ograve" horiz-adv-x="1386" d="M612 -20Q505 -20 412 27T251 160Q107 345 107 670Q107 1045 308 1296Q511 1550 810 1550Q1043 1550 1178 1354Q1306 1166 1306 870Q1306 494 1115 241Q918 -20 612 -20ZM650 100Q746 100 831
155Q1003 269 1074 550Q1105 678 1105 828Q1105 1268 916 1387Q855 1425 767 1425T592 1372Q417 1266 344 1006Q311 889 311 753Q311 100 650 100ZM860 1613Q772 1645 696 1694Q551 1789 520 1862L653 2000L916 1658L860 1613Z" />
<glyph unicode="&#xd3;" glyph-name="Oacute" horiz-adv-x="1386" d="M612 -20Q505 -20 412 27T251 160Q107 345 107 670Q107 1045 308 1296Q511 1550 810 1550Q1043 1550 1178 1354Q1306 1166 1306 870Q1306 494 1115 241Q918 -20 612 -20ZM650 100Q746 100 831
155Q1003 269 1074 550Q1105 678 1105 828Q1105 1268 916 1387Q855 1425 767 1425T592 1372Q417 1266 344 1006Q311 889 311 753Q311 100 650 100ZM787 1658L1063 2000L1187 1862Q1152 1788 1030 1709Q934 1647 840 1613L787 1658Z" />
<glyph unicode="&#xd4;" glyph-name="Ocircumflex" horiz-adv-x="1386" d="M612 -20Q505 -20 412 27T251 160Q107 345 107 670Q107 1045 308 1296Q511 1550 810 1550Q1043 1550 1178 1354Q1306 1166 1306 870Q1306 494 1115 241Q918 -20 612 -20ZM650 100Q746
100 831 155Q1003 269 1074 550Q1105 678 1105 828Q1105 1268 916 1387Q855 1425 767 1425T592 1372Q417 1266 344 1006Q311 889 311 753Q311 100 650 100ZM499 1672L804 2000H981L1193 1672L1125 1613L884 1842L560 1614L499 1672Z" />
<glyph unicode="&#xd5;" glyph-name="Otilde" horiz-adv-x="1386" d="M612 -20Q505 -20 412 27T251 160Q107 345 107 670Q107 1045 308 1296Q511 1550 810 1550Q1043 1550 1178 1354Q1306 1166 1306 870Q1306 494 1115 241Q918 -20 612 -20ZM650 100Q746 100 831
155Q1003 269 1074 550Q1105 678 1105 828Q1105 1268 916 1387Q855 1425 767 1425T592 1372Q417 1266 344 1006Q311 889 311 753Q311 100 650 100ZM508 1801Q563 1911 678 1956Q716 1970 752 1970T813 1960T860 1934T899 1900T934 1866Q976 1830 1008 1830T1062
1840T1102 1867T1136 1902L1166 1940L1224 1849Q1182 1727 1056 1682Q1016 1668 974 1668T904 1678T855 1703T818 1737T786 1770Q726 1826 666 1800Q609 1775 555 1717L508 1801Z" />
<glyph unicode="&#xd6;" glyph-name="Odieresis" horiz-adv-x="1386" d="M612 -20Q505 -20 412 27T251 160Q107 345 107 670Q107 1045 308 1296Q511 1550 810 1550Q1043 1550 1178 1354Q1306 1166 1306 870Q1306 494 1115 241Q918 -20 612 -20ZM650 100Q746 100
831 155Q1003 269 1074 550Q1105 678 1105 828Q1105 1268 916 1387Q855 1425 767 1425T592 1372Q417 1266 344 1006Q311 889 311 753Q311 100 650 100ZM933 1765T933 1804T947 1870T982 1916Q1027 1959 1067 1959T1130 1950Q1200 1921 1200 1848Q1200 1786 1153
1740Q1107 1696 1066 1696Q1002 1696 968 1730ZM524 1770Q516 1789 516 1800T516 1828T530 1870T564 1916Q609 1959 648 1959T711 1950Q781 1921 781 1848Q781 1787 733 1740Q687 1696 646 1696Q553 1696 524 1770Z" />
<glyph unicode="&#xd7;" glyph-name="multiply" horiz-adv-x="1370" d="M231 438L614 765L313 1092L445 1215L726 865L1095 1215L1197 1092L814 765L1115 438L983 315L702 665L333 315L231 438Z" />
<glyph unicode="&#xd8;" glyph-name="Oslash" horiz-adv-x="1386" d="M619 -18Q432 -18 303 105L146 -132L57 -83L235 184Q107 368 107 672Q107 1047 308 1298Q511 1552 810 1552Q968 1552 1083 1458L1224 1670L1313 1621L1156 1384Q1306 1195 1306 872Q1306 496
1115 243Q989 76 808 14Q718 -18 619 -18ZM985 1327Q905 1427 776 1427Q678 1427 592 1374Q417 1268 344 1008Q311 891 311 755Q311 509 360 351L985 1327ZM408 240Q492 102 650 102Q746 102 831 157Q1003 271 1074 552Q1105 680 1105 830Q1105 1074 1042 1228L408
240Z" />
<glyph unicode="&#xd9;" glyph-name="Ugrave" horiz-adv-x="1379" d="M406 11Q145 108 145 454Q145 518 153 593L260 1407L127 1430L139 1530H622L611 1430L460 1405L356 610Q345 507 345 468T345 418Q348 255 421 173T627 90Q966 90 1027 626L1130 1405L997 1429L1008
1530H1440L1429 1429L1305 1407L1201 627Q1135 119 826 14Q725 -20 607 -20T406 11ZM841 1613Q753 1645 677 1694Q532 1789 501 1862L634 2000L897 1658L841 1613Z" />
<glyph unicode="&#xda;" glyph-name="Uacute" horiz-adv-x="1379" d="M406 11Q145 108 145 454Q145 518 153 593L260 1407L127 1430L139 1530H622L611 1430L460 1405L356 610Q345 507 345 468T345 418Q348 255 421 173T627 90Q966 90 1027 626L1130 1405L997 1429L1008
1530H1440L1429 1429L1305 1407L1201 627Q1135 119 826 14Q725 -20 607 -20T406 11ZM768 1658L1044 2000L1168 1862Q1133 1788 1011 1709Q915 1647 821 1613L768 1658Z" />
<glyph unicode="&#xdb;" glyph-name="Ucircumflex" horiz-adv-x="1379" d="M406 11Q145 108 145 454Q145 518 153 593L260 1407L127 1430L139 1530H622L611 1430L460 1405L356 610Q345 507 345 468T345 418Q348 255 421 173T627 90Q966 90 1027 626L1130 1405L997
1429L1008 1530H1440L1429 1429L1305 1407L1201 627Q1135 119 826 14Q725 -20 607 -20T406 11ZM480 1672L785 2000H962L1174 1672L1106 1613L865 1842L541 1614L480 1672Z" />
<glyph unicode="&#xdc;" glyph-name="Udieresis" horiz-adv-x="1379" d="M406 11Q145 108 145 454Q145 518 153 593L260 1407L127 1430L139 1530H622L611 1430L460 1405L356 610Q345 507 345 468T345 418Q348 255 421 173T627 90Q966 90 1027 626L1130 1405L997
1429L1008 1530H1440L1429 1429L1305 1407L1201 627Q1135 119 826 14Q725 -20 607 -20T406 11ZM914 1765T914 1804T928 1870T963 1916Q1008 1959 1048 1959T1111 1950Q1181 1921 1181 1848Q1181 1786 1134 1740Q1088 1696 1047 1696Q983 1696 949 1730ZM505 1770Q497
1789 497 1800T497 1828T511 1870T545 1916Q590 1959 629 1959T692 1950Q762 1921 762 1848Q762 1787 714 1740Q668 1696 627 1696Q534 1696 505 1770Z" />
<glyph unicode="&#xdd;" glyph-name="Yacute" horiz-adv-x="1173" d="M251 87L447 116L508 590L144 1406L40 1429L50 1530H539L527 1429L367 1406L595 838L631 712L703 838L1046 1406L907 1429L918 1530H1330L1319 1429L1220 1407L696 590L635 116L848 87L840
0H243L251 87ZM686 1658L962 2000L1086 1862Q1051 1788 929 1709Q833 1647 739 1613L686 1658Z" />
<glyph unicode="&#xde;" glyph-name="Thorn" horiz-adv-x="1233" d="M587 310Q463 310 409 314L385 116L559 87L551 0H30L39 86L187 116L348 1406L215 1429L227 1530H710L699 1429L546 1406L519 1195Q614 1213 737 1213Q963 1213 1077 1114T1192 829Q1192 596
1014 450Q843 310 587 310ZM424 433Q493 422 591 422T767 450Q995 532 995 779Q995 948 931 1018Q861 1094 684 1094Q594 1094 504 1075L424 433Z" />
<glyph unicode="&#xdf;" glyph-name="germandbls" horiz-adv-x="1184" d="M202 927Q279 1532 663 1578Q721 1585 782 1585T901 1567T1001 1512Q1091 1433 1091 1293Q1091 1134 962 1018L900 962Q833 898 833 851T863 754T957 626L998 563Q1070 450 1070 328Q1070
188 941 85Q814 -16 645 -16Q518 -16 424 31L450 218Q503 156 610 126Q645 116 680 116T749 123T808 150Q864 192 864 298Q864 398 786 523Q652 681 652 793Q652 856 674 893T715 952L756 999Q889 1134 889 1287Q889 1409 794 1450Q761 1464 710 1464T607 1432T514
1329Q429 1185 388 867L267 0H73L202 927Z" />
<glyph unicode="&#xe0;" glyph-name="agrave" horiz-adv-x="1173" d="M718 136Q588 -20 413 -20Q251 -20 164 102Q83 216 83 412Q83 573 160 744Q288 1030 540 1128Q628 1163 726 1163T929 1128L1048 1162L917 187Q912 146 923 129T956 111T1035 157L1066 104Q1049
73 1005 42Q916 -20 843 -20Q716 -20 716 101Q716 108 716 115L718 136ZM832 1008Q785 1041 707 1041T571 1013T466 938T387 830T331 701Q288 570 288 467T299 305T331 206Q374 122 450 122Q578 122 688 236Q719 268 740 298L832 1008ZM722 1251Q611 1298 446 1450Q366
1523 336 1576L489 1743L777 1311L722 1251Z" />
<glyph unicode="&#xe1;" glyph-name="aacute" horiz-adv-x="1173" d="M718 136Q588 -20 413 -20Q251 -20 164 102Q83 216 83 412Q83 573 160 744Q288 1030 540 1128Q628 1163 726 1163T929 1128L1048 1162L917 187Q912 146 923 129T956 111T1035 157L1066 104Q1049
73 1005 42Q916 -20 843 -20Q716 -20 716 101Q716 108 716 115L718 136ZM832 1008Q785 1041 707 1041T571 1013T466 938T387 830T331 701Q288 570 288 467T299 305T331 206Q374 122 450 122Q578 122 688 236Q719 268 740 298L832 1008ZM614 1312L931 1743L1073
1576Q1044 1520 901 1405Q747 1280 667 1251L614 1312Z" />
<glyph unicode="&#xe2;" glyph-name="acircumflex" horiz-adv-x="1173" d="M718 136Q588 -20 413 -20Q251 -20 164 102Q83 216 83 412Q83 573 160 744Q288 1030 540 1128Q628 1163 726 1163T929 1128L1048 1162L917 187Q912 146 923 129T956 111T1035 157L1066
104Q1049 73 1005 42Q916 -20 843 -20Q716 -20 716 101Q716 108 716 115L718 136ZM832 1008Q785 1041 707 1041T571 1013T466 938T387 830T331 701Q288 570 288 467T299 305T331 206Q374 122 450 122Q578 122 688 236Q719 268 740 298L832 1008ZM359 1276L686 1650H864L1054
1276L980 1218L749 1492L416 1219L359 1276Z" />
<glyph unicode="&#xe3;" glyph-name="atilde" horiz-adv-x="1173" d="M718 136Q588 -20 413 -20Q251 -20 164 102Q83 216 83 412Q83 573 160 744Q288 1030 540 1128Q628 1163 726 1163T929 1128L1048 1162L917 187Q912 146 923 129T956 111T1035 157L1066 104Q1049
73 1005 42Q916 -20 843 -20Q716 -20 716 101Q716 108 716 115L718 136ZM832 1008Q785 1041 707 1041T571 1013T466 938T387 830T331 701Q288 570 288 467T299 305T331 206Q374 122 450 122Q578 122 688 236Q719 268 740 298L832 1008ZM380 1481Q435 1591 550 1636Q588
1650 624 1650T685 1640T732 1614T771 1580T806 1546Q848 1510 880 1510T934 1520T974 1547T1008 1582L1038 1620L1096 1529Q1054 1407 928 1362Q888 1348 846 1348T776 1358T727 1383T690 1417T658 1450Q598 1506 538 1480Q481 1455 427 1397L380 1481Z" />
<glyph unicode="&#xe4;" glyph-name="adieresis" horiz-adv-x="1173" d="M718 136Q588 -20 413 -20Q251 -20 164 102Q83 216 83 412Q83 573 160 744Q288 1030 540 1128Q628 1163 726 1163T929 1128L1048 1162L917 187Q912 146 923 129T956 111T1035 157L1066 104Q1049
73 1005 42Q916 -20 843 -20Q716 -20 716 101Q716 108 716 115L718 136ZM832 1008Q785 1041 707 1041T571 1013T466 938T387 830T331 701Q288 570 288 467T299 305T331 206Q374 122 450 122Q578 122 688 236Q719 268 740 298L832 1008ZM856 1424Q799 1482 837 1562Q864
1616 916 1640Q942 1651 969 1651T1021 1642Q1091 1613 1091 1541Q1091 1478 1044 1432Q998 1388 957 1388Q890 1388 856 1424ZM473 1398Q404 1428 404 1503Q404 1562 450 1608Q493 1651 535 1651T601 1642Q671 1613 671 1541Q671 1478 624 1432Q578 1388 537 1388T473
1398Z" />
<glyph unicode="&#xe5;" glyph-name="aring" horiz-adv-x="1173" d="M718 136Q588 -20 413 -20Q251 -20 164 102Q83 216 83 412Q83 573 160 744Q288 1030 540 1128Q628 1163 726 1163T929 1128L1048 1162L917 187Q912 146 923 129T956 111T1035 157L1066 104Q1049
73 1005 42Q916 -20 843 -20Q716 -20 716 101Q716 108 716 115L718 136ZM832 1008Q785 1041 707 1041T571 1013T466 938T387 830T331 701Q288 570 288 467T299 305T331 206Q374 122 450 122Q578 122 688 236Q719 268 740 298L832 1008ZM727 1253Q660 1253 605 1272Q457
1324 457 1486Q457 1505 462 1550T502 1644T585 1724Q679 1786 813 1786T1014 1722T1080 1560Q1080 1403 959 1318Q865 1253 727 1253ZM656 1370T686 1355T752 1340T821 1347T878 1376Q940 1428 940 1538Q940 1644 855 1684Q826 1698 789 1698T720 1689T662 1660Q598
1609 598 1505Q598 1442 627 1406Z" />
<glyph unicode="&#xe6;" glyph-name="ae" horiz-adv-x="1711" d="M1131 -20Q844 -20 779 243Q688 68 516 4Q452 -20 373 -20Q84 -20 84 391Q84 553 160 728Q291 1024 540 1126Q628 1162 726 1162T945 1122L1059 1162L1027 1039Q1169 1162 1341 1162Q1479 1162
1552 1088Q1620 1021 1620 926T1585 769T1493 657T1365 571T1222 510Q1077 462 970 460Q968 426 968 395T970 320T992 227Q1035 119 1155 119Q1351 119 1515 265L1561 182Q1509 111 1400 52Q1269 -20 1131 -20ZM1294 1046Q1122 1046 1022 768Q987 670 975 570Q1120
577 1254 659Q1415 757 1415 901T1294 1046ZM284 404Q284 122 420 122Q538 122 638 223Q711 298 761 410V430Q767 709 920 920Q968 988 1027 1039L997 922L774 563L845 998Q793 1041 711 1041T570 1011T465 930T385 814T328 677Q284 537 284 404Z" />
<glyph unicode="&#xe7;" glyph-name="ccedilla" horiz-adv-x="903" d="M532 -11Q543 -48 543 -95T537 -206T508 -323T452 -409Q390 -464 271 -464Q170 -464 133 -436L168 -305Q194 -319 232 -319T298 -309T348 -274Q421 -199 411 -19Q174 -1 106 248Q84 329 84
418T101 591T151 756T234 911T350 1041Q492 1163 673 1163Q801 1163 893 1115L835 921Q726 1016 639 1016T491 980T385 872Q293 725 293 460Q293 203 414 139Q451 119 492 119T565 125T627 146Q683 171 766 232L805 151Q739 72 628 20Q584 -1 532 -11Z" />
<glyph unicode="&#xe8;" glyph-name="egrave" horiz-adv-x="1051" d="M510 119Q693 119 850 265L896 182Q846 110 742 52Q617 -20 499 -20T304 18Q154 92 106 263Q86 337 86 380T87 473T110 615T170 787T260 938T378 1057Q516 1163 676 1163Q884 1163 942 1012Q960
966 960 901T924 773T830 659T699 573T552 512Q403 462 295 460Q293 439 293 421T294 378T304 315T329 242T370 179Q426 119 510 119ZM300 570Q446 577 588 660Q689 718 732 802Q755 845 755 910T720 1010T632 1046T535 1023T458 960T396 871T348 768Q312 668 300
570ZM643 1251Q532 1298 367 1450Q287 1523 257 1576L410 1743L698 1311L643 1251Z" />
<glyph unicode="&#xe9;" glyph-name="eacute" horiz-adv-x="1051" d="M510 119Q693 119 850 265L896 182Q846 110 742 52Q617 -20 499 -20T304 18Q154 92 106 263Q86 337 86 380T87 473T110 615T170 787T260 938T378 1057Q516 1163 676 1163Q884 1163 942 1012Q960
966 960 901T924 773T830 659T699 573T552 512Q403 462 295 460Q293 439 293 421T294 378T304 315T329 242T370 179Q426 119 510 119ZM300 570Q446 577 588 660Q689 718 732 802Q755 845 755 910T720 1010T632 1046T535 1023T458 960T396 871T348 768Q312 668 300
570ZM535 1312L852 1743L994 1576Q965 1520 822 1405Q668 1280 588 1251L535 1312Z" />
<glyph unicode="&#xea;" glyph-name="ecircumflex" horiz-adv-x="1051" d="M510 119Q693 119 850 265L896 182Q846 110 742 52Q617 -20 499 -20T304 18Q154 92 106 263Q86 337 86 380T87 473T110 615T170 787T260 938T378 1057Q516 1163 676 1163Q884 1163 942
1012Q960 966 960 901T924 773T830 659T699 573T552 512Q403 462 295 460Q293 439 293 421T294 378T304 315T329 242T370 179Q426 119 510 119ZM300 570Q446 577 588 660Q689 718 732 802Q755 845 755 910T720 1010T632 1046T535 1023T458 960T396 871T348 768Q312
668 300 570ZM280 1276L607 1650H785L975 1276L901 1218L670 1492L337 1219L280 1276Z" />
<glyph unicode="&#xeb;" glyph-name="edieresis" horiz-adv-x="1051" d="M510 119Q693 119 850 265L896 182Q846 110 742 52Q617 -20 499 -20T304 18Q154 92 106 263Q86 337 86 380T87 473T110 615T170 787T260 938T378 1057Q516 1163 676 1163Q884 1163 942 1012Q960
966 960 901T924 773T830 659T699 573T552 512Q403 462 295 460Q293 439 293 421T294 378T304 315T329 242T370 179Q426 119 510 119ZM300 570Q446 577 588 660Q689 718 732 802Q755 845 755 910T720 1010T632 1046T535 1023T458 960T396 871T348 768Q312 668 300
570ZM777 1424Q720 1482 758 1562Q785 1616 837 1640Q863 1651 890 1651T942 1642Q1012 1613 1012 1541Q1012 1478 965 1432Q919 1388 878 1388Q811 1388 777 1424ZM394 1398Q325 1428 325 1503Q325 1562 371 1608Q414 1651 456 1651T522 1642Q592 1613 592 1541Q592
1478 545 1432Q499 1388 458 1388T394 1398Z" />
<glyph unicode="&#xec;" glyph-name="igrave" horiz-adv-x="641" d="M286 -20Q162 -20 162 94Q162 162 195 368L288 980L140 1031L158 1112L460 1163L509 1139L370 187Q367 168 367 154Q367 111 392 111Q429 111 499 178L531 125Q481 47 372 -2Q331 -20 286 -20ZM691
1251Q580 1298 415 1450Q335 1523 305 1576L458 1743L746 1311L691 1251Z" />
<glyph unicode="&#xed;" glyph-name="iacute" horiz-adv-x="641" d="M286 -20Q162 -20 162 94Q162 162 195 368L288 980L140 1031L158 1112L460 1163L509 1139L370 187Q367 168 367 154Q367 111 392 111Q429 111 499 178L531 125Q481 47 372 -2Q331 -20 286 -20ZM326
1312L643 1743L785 1576Q756 1520 613 1405Q459 1280 379 1251L326 1312Z" />
<glyph unicode="&#xee;" glyph-name="icircumflex" horiz-adv-x="641" d="M286 -20Q162 -20 162 94Q162 162 195 368L288 980L140 1031L158 1112L460 1163L509 1139L370 187Q367 168 367 154Q367 111 392 111Q429 111 499 178L531 125Q481 47 372 -2Q331 -20 286
-20ZM71 1276L398 1650H576L766 1276L692 1218L461 1492L128 1219L71 1276Z" />
<glyph unicode="&#xef;" glyph-name="idieresis" horiz-adv-x="641" d="M286 -20Q162 -20 162 94Q162 162 195 368L288 980L140 1031L158 1112L460 1163L509 1139L370 187Q367 168 367 154Q367 111 392 111Q429 111 499 178L531 125Q481 47 372 -2Q331 -20 286
-20ZM568 1424Q511 1482 549 1562Q576 1616 628 1640Q654 1651 681 1651T733 1642Q803 1613 803 1541Q803 1478 756 1432Q710 1388 669 1388Q602 1388 568 1424ZM185 1398Q116 1428 116 1503Q116 1562 162 1608Q205 1651 247 1651T313 1642Q383 1613 383 1541Q383
1478 336 1432Q290 1388 249 1388T185 1398Z" />
<glyph unicode="&#xf0;" glyph-name="eth" horiz-adv-x="1176" d="M782 1513Q1085 1246 1085 822Q1085 461 931 228Q767 -20 482 -20Q293 -20 183 121Q86 246 86 423Q86 733 258 927Q421 1110 642 1110Q761 1110 838 1048Q866 1026 885 995Q847 1151 819 1211Q769
1319 681 1399L531 1231L431 1319L583 1482Q435 1593 341 1615L384 1734Q502 1706 681 1589Q757 1675 783 1707Q783 1707 835 1771L932 1680L782 1513ZM297 411Q297 274 350 184Q407 88 507 88Q632 88 730 224Q852 393 873 728Q873 731 873 740T869 773T853 828T823
888T778 943Q717 998 647 998T528 973T442 905T377 803T332 680Q297 552 297 411Z" />
<glyph unicode="&#xf1;" glyph-name="ntilde" horiz-adv-x="1258" d="M907 -21Q777 -21 784 111Q788 176 799 245L818 357Q823 391 841 490T868 644Q889 773 889 838T881 935T858 982Q837 1005 787 1005T693 986T603 933Q508 861 432 755L330 0H135L265 963L167
1022L185 1111L427 1163L475 1139L455 927Q588 1090 752 1144Q807 1163 861 1163T956 1148T1028 1096Q1089 1022 1089 861Q1089 777 1067 662T1034 488Q982 190 996 130Q1000 110 1022 110T1101 156L1132 104Q1088 37 987 -5Q949 -21 907 -21ZM362 1481Q417 1591
532 1636Q570 1650 606 1650T667 1640T714 1614T753 1580T788 1546Q830 1510 862 1510T916 1520T956 1547T990 1582L1020 1620L1078 1529Q1036 1407 910 1362Q870 1348 828 1348T758 1358T709 1383T672 1417T640 1450Q580 1506 520 1480Q463 1455 409 1397L362
1481Z" />
<glyph unicode="&#xf2;" glyph-name="ograve" horiz-adv-x="1143" d="M315 11Q87 108 87 457Q87 724 242 937Q345 1078 495 1134Q570 1163 659 1163T822 1132T946 1042Q1051 919 1051 693Q1051 416 896 206Q792 66 642 8Q567 -20 478 -20T315 11ZM422 126Q463
102 519 102T621 128T704 200T768 306Q842 475 842 687Q842 945 714 1018Q673 1041 617 1041T515 1015T432 943T368 837Q294 668 294 456Q294 198 422 126ZM651 1251Q540 1298 375 1450Q295 1523 265 1576L418 1743L706 1311L651 1251Z" />
<glyph unicode="&#xf3;" glyph-name="oacute" horiz-adv-x="1143" d="M315 11Q87 108 87 457Q87 724 242 937Q345 1078 495 1134Q570 1163 659 1163T822 1132T946 1042Q1051 919 1051 693Q1051 416 896 206Q792 66 642 8Q567 -20 478 -20T315 11ZM422 126Q463
102 519 102T621 128T704 200T768 306Q842 475 842 687Q842 945 714 1018Q673 1041 617 1041T515 1015T432 943T368 837Q294 668 294 456Q294 198 422 126ZM543 1312L860 1743L1002 1576Q973 1520 830 1405Q676 1280 596 1251L543 1312Z" />
<glyph unicode="&#xf4;" glyph-name="ocircumflex" horiz-adv-x="1143" d="M315 11Q87 108 87 457Q87 724 242 937Q345 1078 495 1134Q570 1163 659 1163T822 1132T946 1042Q1051 919 1051 693Q1051 416 896 206Q792 66 642 8Q567 -20 478 -20T315 11ZM422 126Q463
102 519 102T621 128T704 200T768 306Q842 475 842 687Q842 945 714 1018Q673 1041 617 1041T515 1015T432 943T368 837Q294 668 294 456Q294 198 422 126ZM288 1276L615 1650H793L983 1276L909 1218L678 1492L345 1219L288 1276Z" />
<glyph unicode="&#xf5;" glyph-name="otilde" horiz-adv-x="1143" d="M315 11Q87 108 87 457Q87 724 242 937Q345 1078 495 1134Q570 1163 659 1163T822 1132T946 1042Q1051 919 1051 693Q1051 416 896 206Q792 66 642 8Q567 -20 478 -20T315 11ZM422 126Q463
102 519 102T621 128T704 200T768 306Q842 475 842 687Q842 945 714 1018Q673 1041 617 1041T515 1015T432 943T368 837Q294 668 294 456Q294 198 422 126ZM309 1481Q364 1591 479 1636Q517 1650 553 1650T614 1640T661 1614T700 1580T735 1546Q777 1510 809 1510T863
1520T903 1547T937 1582L967 1620L1025 1529Q983 1407 857 1362Q817 1348 775 1348T705 1358T656 1383T619 1417T587 1450Q527 1506 467 1480Q410 1455 356 1397L309 1481Z" />
<glyph unicode="&#xf6;" glyph-name="odieresis" horiz-adv-x="1143" d="M315 11Q87 108 87 457Q87 724 242 937Q345 1078 495 1134Q570 1163 659 1163T822 1132T946 1042Q1051 919 1051 693Q1051 416 896 206Q792 66 642 8Q567 -20 478 -20T315 11ZM422 126Q463
102 519 102T621 128T704 200T768 306Q842 475 842 687Q842 945 714 1018Q673 1041 617 1041T515 1015T432 943T368 837Q294 668 294 456Q294 198 422 126ZM785 1424Q728 1482 766 1562Q793 1616 845 1640Q871 1651 898 1651T950 1642Q1020 1613 1020 1541Q1020
1478 973 1432Q927 1388 886 1388Q819 1388 785 1424ZM402 1398Q333 1428 333 1503Q333 1562 379 1608Q422 1651 464 1651T530 1642Q600 1613 600 1541Q600 1478 553 1432Q507 1388 466 1388T402 1398Z" />
<glyph unicode="&#xf7;" glyph-name="divide" horiz-adv-x="1370" d="M832 1047T803 1037T746 1026T696 1034T654 1059Q617 1093 621 1137T643 1209T686 1256Q738 1298 785 1298T857 1288T896 1261Q925 1227 920 1184T898 1113T857 1067ZM292 853H1161L1143 696H274L292
853ZM575 269T558 285T534 321T526 371T545 431T590 482Q643 524 690 524T761 514Q823 488 823 416Q823 343 761 292Q711 252 667 252T599 260Z" />
<glyph unicode="&#xf8;" glyph-name="oslash" horiz-adv-x="1143" d="M935 1055Q1051 931 1051 695Q1051 418 896 208Q792 68 642 10Q567 -18 483 -18Q347 -18 255 45L131 -132L42 -83L180 117Q87 240 87 459Q87 726 242 939Q345 1080 495 1136Q570 1165 670 1165T855
1118L985 1303L1074 1254L935 1055ZM754 989Q700 1043 631 1043T515 1017T432 945T368 839Q294 670 294 458Q294 363 311 292L754 989ZM361 182Q418 104 518 104Q677 104 768 308Q842 477 842 689Q842 810 812 892L361 182Z" />
<glyph unicode="&#xf9;" glyph-name="ugrave" horiz-adv-x="1207" d="M750 120Q610 -20 420 -20Q232 -20 183 124Q165 177 165 232T168 329T176 414L250 963L152 1022L170 1111L412 1163L460 1139L370 430Q361 354 361 294T371 201T400 150Q433 117 485 117T573
127T642 156Q709 192 761 246L881 1155H1074L949 189Q947 171 947 157Q947 113 971 113Q1005 113 1077 180L1108 127Q1088 91 1039 55Q939 -18 868 -18T773 15T748 76T750 120ZM674 1251Q563 1298 398 1450Q318 1523 288 1576L441 1743L729 1311L674 1251Z" />
<glyph unicode="&#xfa;" glyph-name="uacute" horiz-adv-x="1207" d="M750 120Q610 -20 420 -20Q232 -20 183 124Q165 177 165 232T168 329T176 414L250 963L152 1022L170 1111L412 1163L460 1139L370 430Q361 354 361 294T371 201T400 150Q433 117 485 117T573
127T642 156Q709 192 761 246L881 1155H1074L949 189Q947 171 947 157Q947 113 971 113Q1005 113 1077 180L1108 127Q1088 91 1039 55Q939 -18 868 -18T773 15T748 76T750 120ZM566 1312L883 1743L1025 1576Q996 1520 853 1405Q699 1280 619 1251L566 1312Z" />
<glyph unicode="&#xfb;" glyph-name="ucircumflex" horiz-adv-x="1207" d="M750 120Q610 -20 420 -20Q232 -20 183 124Q165 177 165 232T168 329T176 414L250 963L152 1022L170 1111L412 1163L460 1139L370 430Q361 354 361 294T371 201T400 150Q433 117 485 117T573
127T642 156Q709 192 761 246L881 1155H1074L949 189Q947 171 947 157Q947 113 971 113Q1005 113 1077 180L1108 127Q1088 91 1039 55Q939 -18 868 -18T773 15T748 76T750 120ZM311 1276L638 1650H816L1006 1276L932 1218L701 1492L368 1219L311 1276Z" />
<glyph unicode="&#xfc;" glyph-name="udieresis" horiz-adv-x="1207" d="M750 120Q610 -20 420 -20Q232 -20 183 124Q165 177 165 232T168 329T176 414L250 963L152 1022L170 1111L412 1163L460 1139L370 430Q361 354 361 294T371 201T400 150Q433 117 485 117T573
127T642 156Q709 192 761 246L881 1155H1074L949 189Q947 171 947 157Q947 113 971 113Q1005 113 1077 180L1108 127Q1088 91 1039 55Q939 -18 868 -18T773 15T748 76T750 120ZM808 1424Q751 1482 789 1562Q816 1616 868 1640Q894 1651 921 1651T973 1642Q1043
1613 1043 1541Q1043 1478 996 1432Q950 1388 909 1388Q842 1388 808 1424ZM425 1398Q356 1428 356 1503Q356 1562 402 1608Q445 1651 487 1651T553 1642Q623 1613 623 1541Q623 1478 576 1432Q530 1388 489 1388T425 1398Z" />
<glyph unicode="&#xfd;" glyph-name="yacute" horiz-adv-x="1071" d="M-83 -320Q10 -360 63 -360T158 -346T244 -296Q346 -215 413 -53H350L180 965Q171 996 163 1008T131 1021T58 978L29 1038Q74 1105 170 1147Q206 1163 244 1163T305 1154T344 1126Q366 1097
378 1026L463 295L483 21L642 338L704 479Q808 709 832 898Q837 938 825 971L808 1021Q802 1038 802 1054Q802 1110 829 1136T899 1162Q1027 1162 1027 972Q1027 773 868 472L659 69Q508 -213 401 -340Q327 -446 173 -489Q115 -505 71 -505T4 -503T-44 -496Q-104
-486 -129 -478L-83 -320ZM506 1312L823 1743L965 1576Q936 1520 793 1405Q639 1280 559 1251L506 1312Z" />
<glyph unicode="&#xfe;" glyph-name="thorn" horiz-adv-x="1165" d="M627 14Q540 -20 456 -20T298 -3L281 -140L221 -520H31L102 -20L300 1482L205 1525L235 1611L466 1650L517 1623L433 998Q519 1109 642 1148Q687 1162 755 1162T888 1130T994 1040Q1077 926
1077 730Q1077 474 910 240Q794 79 627 14ZM318 143Q370 101 455 101T597 129T698 206T775 317T830 448Q872 584 872 723T827 941T704 1020Q620 1020 530 955Q457 901 410 829L318 143Z" />
<glyph unicode="&#xff;" glyph-name="ydieresis" horiz-adv-x="1071" d="M-83 -320Q10 -360 63 -360T158 -346T244 -296Q346 -215 413 -53H350L180 965Q171 996 163 1008T131 1021T58 978L29 1038Q74 1105 170 1147Q206 1163 244 1163T305 1154T344 1126Q366 1097
378 1026L463 295L483 21L642 338L704 479Q808 709 832 898Q837 938 825 971L808 1021Q802 1038 802 1054Q802 1110 829 1136T899 1162Q1027 1162 1027 972Q1027 773 868 472L659 69Q508 -213 401 -340Q327 -446 173 -489Q115 -505 71 -505T4 -503T-44 -496Q-104
-486 -129 -478L-83 -320ZM748 1424Q691 1482 729 1562Q756 1616 808 1640Q834 1651 861 1651T913 1642Q983 1613 983 1541Q983 1478 936 1432Q890 1388 849 1388Q782 1388 748 1424ZM365 1398Q296 1428 296 1503Q296 1562 342 1608Q385 1651 427 1651T493 1642Q563
1613 563 1541Q563 1478 516 1432Q470 1388 429 1388T365 1398Z" />
<glyph unicode="&#x2013;" glyph-name="endash" horiz-adv-x="1538" d="M262 851H1359L1329 694H232L262 851Z" />
<glyph unicode="&#x2014;" glyph-name="emdash" horiz-adv-x="2031" d="M261 851H1852L1822 694H232L261 851Z" />
<glyph unicode="&#x2018;" glyph-name="quoteleft" horiz-adv-x="682" d="M395 937Q304 961 256 1048Q217 1119 217 1199T233 1339T278 1448T345 1540T426 1616Q505 1678 608 1721L649 1651L647 1629Q568 1603 502 1504Q436 1405 436 1300Q436 1236 459 1198Q499
1134 546 1128L541 1087L395 937Z" />
<glyph unicode="&#x2019;" glyph-name="quoteright" horiz-adv-x="682" d="M467 1720Q558 1696 606 1609Q645 1538 645 1458T629 1318T584 1209T517 1117T436 1041Q357 979 254 936L213 1006L215 1028Q294 1054 360 1153Q426 1252 426 1357Q426 1421 403 1459Q363
1523 316 1529L321 1570L467 1720Z" />
<glyph unicode="&#x201a;" glyph-name="quotesinglbase" horiz-adv-x="682" d="M283 281Q374 257 422 170Q461 99 461 19T445 -121T400 -230T333 -322T252 -398Q173 -460 70 -503L29 -433L31 -411Q110 -385 176 -286Q242 -187 242 -82Q242 -18 219 20Q179 84 132
90L137 131L283 281Z" />
<glyph unicode="&#x201c;" glyph-name="quotedblleft" horiz-adv-x="1161" d="M874 937Q783 961 735 1048Q696 1119 696 1199T712 1339T757 1448T824 1540T905 1616Q984 1678 1087 1721L1128 1651L1126 1629Q1047 1603 981 1504Q915 1405 915 1300Q915 1236 938
1198Q978 1134 1025 1128L1020 1087L874 937ZM395 937Q304 961 256 1048Q217 1119 217 1199T233 1339T278 1448T345 1540T426 1616Q505 1678 608 1721L649 1651L647 1629Q568 1603 502 1504Q436 1405 436 1300Q436 1236 459 1198Q499 1134 546 1128L541 1087L395
937Z" />
<glyph unicode="&#x201d;" glyph-name="quotedblright" horiz-adv-x="1161" d="M946 1720Q1037 1696 1085 1609Q1124 1538 1124 1458T1108 1318T1063 1209T996 1117T915 1041Q836 979 733 936L692 1006L694 1028Q773 1054 839 1153Q905 1252 905 1357Q905 1421
882 1459Q842 1523 795 1529L800 1570L946 1720ZM467 1720Q558 1696 606 1609Q645 1538 645 1458T629 1318T584 1209T517 1117T436 1041Q357 979 254 936L213 1006L215 1028Q294 1054 360 1153Q426 1252 426 1357Q426 1421 403 1459Q363 1523 316 1529L321 1570L467
1720Z" />
<glyph unicode="&#x201e;" glyph-name="quotedblbase" horiz-adv-x="1161" d="M283 281Q374 257 422 170Q461 99 461 19T445 -121T400 -230T333 -322T252 -398Q173 -460 70 -503L29 -433L31 -411Q110 -385 176 -286Q242 -187 242 -82Q242 -18 219 20Q179 84 132
90L137 131L283 281ZM762 281Q853 257 901 170Q940 99 940 19T924 -121T879 -230T812 -322T731 -398Q652 -460 549 -503L508 -433L510 -411Q589 -385 655 -286Q721 -187 721 -82Q721 -18 698 20Q658 84 611 90L616 131L762 281Z" />
<glyph unicode="&#x2022;" glyph-name="bullet" horiz-adv-x="858" d="M550 554T505 531T415 507T339 521T284 559Q233 611 233 669T253 773T309 856Q388 939 484 939Q559 939 610 890Q660 841 660 782T640 676T585 592Z" />
<glyph unicode="&#x2039;" glyph-name="guilsinglleft" horiz-adv-x="1190" d="M264 690L956 1086L994 971L484 615L898 264L828 152L242 530L264 690Z" />
<glyph unicode="&#x203a;" glyph-name="guilsinglright" horiz-adv-x="1190" d="M857 548L165 152L127 267L637 623L223 974L293 1086L879 708L857 548Z" />
</font>
</defs>
</svg>
